Завантажити та скачати торренти українською


Джонні Мнемонік / Johnny Mnemonic (1995) 720p Ukr/Eng | Sub Rus/Eng/Jap

Нові коментарі

Нова тема   Відповісти
Автор Повідомлення
NeetScrool 
Відео Гуртом - фільмокрай
Відео Гуртом - фільмокрай


З нами з: 10.01.13
Востаннє: 10.12.16
Повідомлень: 2226

2013-11-29 01:07  
Джонні Мнемонік / Johnny Mnemonic (1995) 720p Ukr/Eng | Sub Rus/Eng/Jap

Джонні Мнемонік / Johnny Mnemonic (1995) 720p Ukr/Eng | Sub Rus/Eng/Jap


Жанр: бойовик, фантастика, трилер, кіберпанк
Країна: США, Канада



Кінокомпанія: TriStar Pictures, Alliance Communications Corporation, Cinévision
Режисер: Роберт Лонго / Robert Longo
Актори: Вільям Гібсон / William Gibson (засновник кіберпанку, вікіпедія) Актори: Кіану Рівз / Keanu Reeves, Діна Мейер / Dina Meyer, Дольф Лундгрен / Dolph Lundgren, Айс Ті / Ice-T, Дон Френкс / Don Francks, Такеші Кітано / Takeshi Kitano та інші.

Сюжет:
2021 рік. Людству загрожує страшна хвороба: синдром нервового виснаження. Кур'єр-мнемонік Джонні повинен доставити формулу унікальних ліків, здатних вилікувати людей. Він береже її в найнадійнішому місці: у власному мозку. Але занадто багато людей хочуть заволодіти цими безцінними даними, і на Джонні починається полювання. До того ж, якщо не витягнути інформацію протягом 24-х годин, він загине. Ставки занадто високі...


Тривалість: 01:36:41
Якість:
Відео:
кодек:
розмір кадру: 1280 х 720
бітрейт: 8 499 кб/с

Аудіо # 1:
мова: українська
переклад: двоголосий закадровий
Ролі озвучили: Анатолій Пашнін та Олена Яблучна
кодек: 5.1
бітрейт: 384 кб/с

Аудіо # 2:
мова: англійська
переклад: оригінал
кодек: 5.1
бітрейт: 640 кб/с

Джерело озвучення:


Субтитри:
мова: російська
тип: програмні (м'які)
формат: *.srt

Субтитри:
мова: англійська
тип: програмні (м'які)
формат: *.srt

Субтитри:
мова: японська
тип: пререндерні
формат: PGS
MediaInfo
General
Unique ID : 176129066637320442060989118439221526672 (0x8481396F178BC0E5A07BB9BD7E468090)
Complete name : D:\Фільми\Johnny Mnemonic (1995) 720p.mkv
Format : Matroska
Format version : Version 4 / Version 2
File size : 6.44 GiB
Duration : 1h 36mn
Overall bit rate : 9 542 Kbps
Movie name : Джонні Мнемонік / Johnny Mnemonic (1995) 720p
Encoded date : UTC 2013-11-28 22:57:09
Writing application : mkvmerge v6.5.0 ('Isn't she lovely') built on Oct 20 2013 12:50:05
Writing library : libebml v1.3.0 + libmatroska v1.4.1

Video
ID : 1
Format : AVC
Format/Info : Advanced Video Codec
Format profile : [email protected]
Format settings, CABAC : Yes
Format settings, ReFrames : 9 frames
Codec ID : V_MPEG4/ISO/AVC
Duration : 1h 36mn
Bit rate : 8 499 Kbps
Width : 1 280 pixels
Height : 720 pixels
Display aspect ratio : 16:9
Frame rate mode : Constant
Frame rate : 23.976 fps
Color space : YUV
Chroma subsampling : 4:2:0
Bit depth : 8 bits
Scan type : Progressive
Bits/(Pixel*Frame) : 0.385
Stream size : 5.62 GiB (87%)
Title : Johnny Mnemonic 1995 720p BluRay FLAC -JENC
Writing library : core 113 r1884 7313bb5
Encoding settings : cabac=1 / ref=9 / deblock=1:-3:-3 / analyse=0x3:0x133 / me=tesa / subme=10 / psy=1 / psy_rd=1.20:0.00 / mixed_ref=1 / me_range=16 / chroma_me=1 / trellis=2 / 8x8dct=1 / cqm=0 / deadzone=21,11 / fast_pskip=0 / chroma_qp_offset=-2 / threads=18 / sliced_threads=0 / nr=0 / decimate=0 / interlaced=0 / constrained_intra=0 / bframes=9 / b_pyramid=2 / b_adapt=2 / b_bias=0 / direct=3 / weightb=1 / open_gop=0 / weightp=2 / keyint=250 / keyint_min=23 / scenecut=40 / intra_refresh=0 / rc=2pass / mbtree=0 / bitrate=8499 / ratetol=1.0 / qcomp=0.60 / qpmin=0 / qpmax=69 / qpstep=4 / cplxblur=20.0 / qblur=0.5 / ip_ratio=1.40 / pb_ratio=1.30 / aq=2:0.50
Language : English
Default : No
Forced : No

Audio #1
ID : 2
Format : AC-3
Format/Info : Audio Coding 3
Mode extension : CM (complete main)
Format settings, Endianness : Big
Codec ID : A_AC3
Duration : 1h 36mn
Bit rate mode : Constant
Bit rate : 384 Kbps
Channel count : 6 channels
Channel positions : Front: L C R, Side: L R, LFE
Sampling rate : 48.0 KHz
Bit depth : 16 bits
Compression mode : Lossy
Stream size : 266 MiB (4%)
Title : Телеканал КІНО
Language : Ukrainian
Default : Yes
Forced : No

Audio #2
ID : 3
Format : AC-3
Format/Info : Audio Coding 3
Mode extension : CM (complete main)
Format settings, Endianness : Big
Codec ID : A_AC3
Duration : 1h 36mn
Bit rate mode : Constant
Bit rate : 640 Kbps
Channel count : 6 channels
Channel positions : Front: L C R, Side: L R, LFE
Sampling rate : 48.0 KHz
Bit depth : 16 bits
Compression mode : Lossy
Stream size : 443 MiB (7%)
Title : English DD5.1 @ 640 kbps
Language : English
Default : No
Forced : No

Text #1
ID : 4
Format : UTF-8
Codec ID : S_TEXT/UTF8
Codec ID/Info : UTF-8 Plain Text
Title : Russian
Language : Russian
Default : No
Forced : No

Text #2
ID : 5
Format : UTF-8
Codec ID : S_TEXT/UTF8
Codec ID/Info : UTF-8 Plain Text
Title : English
Language : English
Default : No
Forced : No

Text #3
ID : 6
Format : PGS
Muxing mode : zlib
Codec ID : S_HDMV/PGS
Codec ID/Info : The same subtitle format used on BDs/HD-DVDs
Title : Japanese
Language : Japanese
Default : No
Forced : No

Menu
00:00:00.000 : en:00:00:00.000
00:06:55.206 : en:00:06:55.206
00:15:55.454 : en:00:15:55.454
00:22:11.914 : en:00:22:11.914
00:33:15.493 : en:00:33:15.493
00:37:56.274 : en:00:37:56.274
00:46:44.969 : en:00:46:44.969
00:54:26.930 : en:00:54:26.930
01:01:41.364 : en:01:01:41.364
01:08:22.557 : en:01:08:22.557
01:16:36.217 : en:01:16:36.217
01:23:23.207 : en:01:23:23.207
Скріншоти








Джерело: &
Особиста оцінка: 8 - мені сподобалося


Срібний реліз (на рейтинг впливає 50% завантаженого)
 Трекер:    Зареєстрований   

Завантажити / скачати фільм українською



відео для новачків



 Зареєстрований:   2013-11-29 01:12
 Розмір:   6.44 GB 
 Оцінка фільму:   7.4/10 (Голосів: 14)
   
Інші релізи
Ваш часовий пояс: GMT + 2 Години

Нова тема   Відповісти