Завантажити та скачати торренти українською


Елізіум / Elysium (2013) 720p-mini

Нові коментарі

Нова тема   Відповісти
Автор Повідомлення
Drool 
VIP


З нами з: 17.04.10
Востаннє: 08.12.16
Повідомлень: 1271

2013-11-28 16:23  
Елізіум / Elysium (2013) 720p-mini

Жанр: екшн, драма, фантастика
Країна: США



Кінокомпанія: TriStar Pictures, Media Rights Capital, QED International, Simon Kinberg Productions, Sony Pictures Entertainment; мейджор – Buena Vista Sony Pictures Releasing (BVSPR)
Режисер: Ніл Бломкамп
Актори: Метт Деймон, Джоді Фостер, Шарлто Коплі, Еліс Брага, Дієго Луна

Сюжет:
У 2154 році існує два класи людей: неймовірно багаті та «решта». Перші живуть на чистій, створеній людьми, космічній станції під назвою Елізіум, другі — на перенаселеній напівзруйнованій Землі. Безжалісний урядовець Міністр Роудс не зупиниться ні перед чим, щоб привести у виконання жорсткі анти-імміграційні закони і зберегти розкішне життя громадян станції. Це, однак, не зупиняє мешканців Землі від спроб за будь-яку ціну проникнути на Елізіум. Коли невдаху Макса заганяють в кут, він погоджується піти на ризиковану місію, яка в разі успіху не лише врятує йому життя, але і може привести до рівноправ'я такі настільки різні світи.


Тривалість: 01:49:35
Якість: 720p-mini
Відео:
кодек:
розмір кадру: 1280х536
бітрейт: 2612 кб/с

Аудіо:
мова: українська
переклад: професійний дубльований
кодек: 5.1
бітрейт: 640 кб/с

Субтитри:
мова: українська
тип: програмні (м'які) форсовані
формат: *.srt

Джерело озвучення:
MediaInfo
General
Unique ID : 187355275511619441838214733571959729202 (0x8CF35043CEF6A2A9B330CB565BFAAC32)
Complete name : /mnt/disk/Video/Elysium.2013.Ukr.Dub..720p-mini.UAGet.mkv
Format : Matroska
File size : 2.49 GiB
Duration : 1h 49mn
Overall bit rate : 3 253 Kbps
Movie name : Елізіум / Elysium (2013) 720p-mini | -=UAGET=-
Encoded date : UTC 2013-11-29 06:04:54
Writing application : mkvmerge v6.5.0 ('Isn't she lovely') built on Oct 20 2013 12:50:05
Writing library : libebml v1.3.0 + libmatroska v1.4.1

Video
ID : 1
Format : AVC
Format/Info : Advanced Video Codec
Format profile : [email protected]
Format settings, CABAC : Yes
Format settings, ReFrames : 8 frames
Codec ID : V_MPEG4/ISO/AVC
Duration : 1h 49mn
Bit rate : 2 612 Kbps
Width : 1 280 pixels
Height : 536 pixels
Display aspect ratio : 2.35:1
Frame rate : 23.976 fps
Color space : YUV
Chroma subsampling : 4:2:0
Bit depth : 8 bits
Scan type : Progressive
Bits/(Pixel*Frame) : 0.159
Stream size : 1.95 GiB (78%)
Title : Елізіум / Elysium (2013) 720p-mini | -=UAGET=-
Writing library : core 130 r2273 b3065e6
Encoding settings : cabac=1 / ref=9 / deblock=1:-3:-3 / analyse=0x3:0x133 / me=umh / subme=11 / psy=1 / psy_rd=1.00:0.20 / mixed_ref=1 / me_range=32 / chroma_me=1 / trellis=2 / 8x8dct=1 / cqm=0 / deadzone=21,11 / fast_pskip=0 / chroma_qp_offset=-3 / threads=6 / lookahead_threads=1 / sliced_threads=0 / nr=0 / decimate=1 / interlaced=0 / bluray_compat=0 / constrained_intra=0 / bframes=16 / b_pyramid=1 / b_adapt=2 / b_bias=0 / direct=3 / weightb=1 / open_gop=0 / weightp=2 / keyint=240 / keyint_min=24 / scenecut=40 / intra_refresh=0 / rc=2pass / mbtree=0 / bitrate=2612 / ratetol=1.0 / qcomp=1.00 / qpmin=0 / qpmax=69 / qpstep=4 / cplxblur=20.0 / qblur=0.5 / ip_ratio=1.40 / pb_ratio=1.30 / aq=2:0.60
Color primaries : BT.709-5, BT.1361, IEC 61966-2-4, SMPTE RP177
Transfer characteristics : BT.709-5, BT.1361
Matrix coefficients : BT.709-5, BT.1361, IEC 61966-2-4 709, SMPTE RP177

Audio
ID : 2
Format : AC-3
Format/Info : Audio Coding 3
Mode extension : CM (complete main)
Codec ID : A_AC3
Duration : 1h 49mn
Bit rate mode : Constant
Bit rate : 640 Kbps
Channel(s) : 6 channels
Channel positions : Front: L C R, Side: L R, LFE
Sampling rate : 48.0 KHz
Bit depth : 16 bits
Compression mode : Lossy
Stream size : 502 MiB (20%)
Title : Рідна мова (Дубляж) 640kbps
Language : Ukrainian

Text
ID : 3
Format : UTF-8
Codec ID : S_TEXT/UTF8
Codec ID/Info : UTF-8 Plain Text
Title : Українські (форсовані) | Drool
Language : Ukrainian
Скріншоти




Реліз від:
Особиста оцінка: 9 - давно не бачив настільки якісне кіно


 Трекер:    Зареєстрований   

Завантажити / скачати фільм українською



відео для новачків



 Зареєстрований:   2013-11-29 10:19
 Розмір:   2.49 GB 
 Оцінка фільму:   9.7/10 (Голосів: 46)
   
Інші релізи
   Елізіум / Elysium (2013) AVC patriot2305  6 / 0   2.26 GB   2013-11-27 19:02 
   Елізіум / Elysium (2013) Ukr/Eng AngryBirdsUA  4 / 1   2.18 GB   2013-11-27 14:22 
   Елізіум / Elysium (2013) 1080p Ukr/Eng | sub Eng igor911  2 / 0   11.06 GB   2013-11-26 18:19 
   Елізіум / Elysium (2013) Jatx_11  9 / 0   1.46 GB   2013-11-26 17:34 
   Елізіум / Elysium (2013) 720p Ukr/Eng | sub Eng akon111  7 / 0   5.5 GB   2013-11-26 17:18 
   Елізіум / Elysium (2013) Blu-ray CEE Multi | Sub Multi smak2001  0 / 0   41.97 GB   2013-11-26 15:54 
bot 
робот


З нами з: 30.09.07
Востаннє: 26.05.05
Повідомлень: 16030

2013-11-28 16:24  
Тему перенесено з Фільми в HD до форуму Анонси релізів


Drool

Drool 
VIP


З нами з: 17.04.10
Востаннє: 08.12.16
Повідомлень: 1271

2013-11-28 16:24  
Поставив на кодування. Орієнтовний розмір - 2,4 Гб.
bot 
робот


З нами з: 30.09.07
Востаннє: 26.05.05
Повідомлень: 16030

2013-11-29 10:19  
Тему перенесено з Анонси релізів до форуму Фільми в HD


Drool

Stepan2009 
VIP


З нами з: 18.09.10
Востаннє: 08.12.16
Повідомлень: 322

2013-11-29 12:01  
Дякую, Drool!
FreeGuest 
VIP


З нами з: 12.01.12
Востаннє: 06.12.16
Повідомлень: 271

2013-11-29 12:04  
Дуже дякую, за 720p-mini Drool!
Drool 
VIP


З нами з: 17.04.10
Востаннє: 08.12.16
Повідомлень: 1271

2013-11-29 12:37  
Додав зразок відео.

P.S. Шкода, що середні ріпи зараз ніхто не робить...

ВТО 
Частий відвідувач


З нами з: 05.05.11
Востаннє: 24.09.16
Повідомлень: 27

2013-11-29 23:52  
Я би спробував зробити ріпи, але щось не дуже виходить, з тими конверторами, форматами... ?
Drool - може щось порадиш?
Дякую!

Drool 
VIP


З нами з: 17.04.10
Востаннє: 08.12.16
Повідомлень: 1271

2013-11-30 00:53  
ВТО написано:
Drool - може щось порадиш?

Я користуюсь програмою HandBrake, і навіть якось писав до неї невеличку доку. Нехай слово Linux в темі не лякає - програма існує під Windows також, тільки інтерфейс трішечки різниться.

KoljaLevko 
Частий відвідувач


З нами з: 29.03.10
Востаннє: 08.12.16
Повідомлень: 47

2013-11-30 10:58  
Ооооо!!! 720p-mini ! це ж оптимальний варіант для мене. Велике спасибі!
класний фільмець, люблю такі фільми

Едм 
VIP


З нами з: 18.05.08
Востаннє: 07.12.16
Повідомлень: 1209

2014-01-14 02:24  
Стрічка тримає в напрузі. Брутальна. Залік пройдено.
vs79 
Новенький


З нами з: 11.03.14
Востаннє: 12.06.15
Повідомлень: 1

2014-03-14 15:35  
Слава Україні!
trelxtrel 
VIP


З нами з: 15.12.10
Востаннє: 08.12.16
Повідомлень: 327

2014-03-17 11:30  
Нормальний фільм, але чесно кажучи - одноразовий! Другий раз його дивитись не буде цікаво!

6,5/10

shangran 
Свій


З нами з: 04.10.14
Востаннє: 25.11.16
Повідомлень: 99

2014-10-28 13:55  
Теж згоден,що фільм вийшов дуже не поганий в усьому.
Ваш часовий пояс: GMT + 2 Години

Нова тема   Відповісти