Завантажити та скачати торренти українською


Персі Джексон: Море чудовиськ / Percy Jackson: Sea of Monsters (2013) 720p-mini

Нові коментарі

Нова тема   Відповісти
Автор Повідомлення
Drool 
VIP


З нами з: 17.04.10
Востаннє: 03.12.16
Повідомлень: 1262

2013-11-27 22:35  
Персі Джексон: Море чудовиськ / Percy Jackson: Sea of Monsters (2013) 720p-mini

Жанр: пригодницький, сімейний, фентезі
Країна: США



Кінокомпанія: Fox 2000 Pictures, Sunswept Entertainment, 1492 Pictures
Режисер: Тор Фреденталь
Актори: Лоґан Лерман, Шон Бін, Натан Філліон, Джейк Абель, Олександра Даддаріо, Стенлі Туччі, Лівен Рамбін та ін.

Сюжет:
Персі вирушає на пошуки свого друга, сатира Гроувера, що потрапив у пастку до циклопа Поліфема. На кону стоїть не тільки сатир, а й весь «Табір напівкровок»: хтось отруїв священне дерево Талії, а це означає, що захист табору ось-ось впаде і вже ніщо не зможе утримати чудовиськ від вторгнення. Зцілити дерево здатне тільки міфічне Золоте руно, заховане на острові Поліфема - і, щоб дістатися до нього, необхідно переплисти Море Чудовиськ і битися з його мешканцями - Сциллою і Харибдою, солодкоголосими сиренами і підступною чарівницею Цірцеєю.


Тривалість: 01:46:07
Якість: 720p-mini
Відео:
кодек:
розмір кадру: 1280x544
бітрейт: 2502 кб/с

Аудіо:
мова: українська
переклад: професійний дубльований
кодек: 5.1
бітрейт: 448 кб/с

Джерело озвучення:
MediaInfo
General
Unique ID : 102708338637324707444841701132908440016 (0x4D44E80FDBE60D1EF233D7623B5D29D0)
Complete name : /mnt/data/torrents/Percy.Jackson.Sea.of.Monsters.2013.Ukr.Dub..720p-mini.mkv
Format : Matroska
Format version : Version 4 / Version 2
File size : 2.19 GiB
Duration : 1h 46mn
Overall bit rate : 2 951 Kbps
Movie name : Персі Джексон: Море чудовиськ / Percy Jackson: Sea of Monsters (2013) 720p-mini | video by ViSiON
Encoded date : UTC 2010-02-22 21:41:31
Writing application : mkvmerge v6.1.0 ('Old Devil') built on Apr 14 2013 12:26:22
Writing library : libebml v1.3.0 + libmatroska v1.4.0

Video
ID : 1
Format : AVC
Format/Info : Advanced Video Codec
Format profile : [email protected]
Format settings, CABAC : Yes
Format settings, ReFrames : 8 frames
Codec ID : V_MPEG4/ISO/AVC
Duration : 1h 46mn
Bit rate : 2 502 Kbps
Width : 1 280 pixels
Height : 544 pixels
Display aspect ratio : 2.35:1
Frame rate : 23.976 fps
Color space : YUV
Chroma subsampling : 4:2:0
Bit depth : 8 bits
Scan type : Progressive
Bits/(Pixel*Frame) : 0.150
Stream size : 1.81 GiB (83%)
Title : Персі Джексон: Море чудовиськ / Percy Jackson: Sea of Monsters (2013) 720p-mini | video by ViSiON
Writing library : core 125 r2200 999b753
Encoding settings : cabac=1 / ref=8 / deblock=1:1:0 / analyse=0x3:0x133 / me=umh / subme=9 / psy=1 / psy_rd=1.00:0.15 / mixed_ref=1 / me_range=16 / chroma_me=1 / trellis=2 / 8x8dct=1 / cqm=0 / deadzone=21,11 / fast_pskip=1 / chroma_qp_offset=-1 / threads=12 / lookahead_threads=2 / sliced_threads=0 / nr=1 / decimate=1 / interlaced=0 / bluray_compat=0 / constrained_intra=0 / bframes=3 / b_pyramid=2 / b_adapt=2 / b_bias=0 / direct=3 / weightb=1 / open_gop=0 / weightp=2 / keyint=250 / keyint_min=23 / scenecut=40 / intra_refresh=0 / rc_lookahead=60 / rc=2pass / mbtree=1 / bitrate=2502 / ratetol=1.0 / qcomp=0.60 / qpmin=0 / qpmax=69 / qpstep=4 / cplxblur=20.0 / qblur=0.5 / ip_ratio=1.40 / aq=1:1.10
Default : Yes
Forced : No

Audio
ID : 2
Format : AC-3
Format/Info : Audio Coding 3
Mode extension : CM (complete main)
Codec ID : A_AC3
Duration : 1h 46mn
Bit rate mode : Constant
Bit rate : 448 Kbps
Channel(s) : 6 channels
Channel positions : Front: L C R, Side: L R, LFE
Sampling rate : 48.0 KHz
Bit depth : 16 bits
Compression mode : Lossy
Stream size : 340 MiB (15%)
Title : 5.1 @ 448 kbps - DUB, Blu-ray EUR
Language : Ukrainian
Default : Yes
Forced : No
Скріншоти




Джерело: відеоряд взято з іноземного ріпу RG ViSiON
Особиста оцінка: 0 - не дивився


 Трекер:    Зареєстрований   

Завантажити / скачати фільм українською



відео для новачків



 Зареєстрований:   2013-11-28 03:17
 Розмір:   2.19 GB 
 Оцінка фільму:   9.3/10 (Голосів: 26)
   
bot 
робот


З нами з: 30.09.07
Востаннє: 26.05.05
Повідомлень: 15982

2013-11-28 03:16  
Тему перенесено з Анонси релізів до форуму Фільми в HD


Drool

Stepan2009 
VIP


З нами з: 18.09.10
Востаннє: 04.12.16
Повідомлень: 322

2013-11-28 12:25  
Головний актор - дитина - зовсім не підходить на роль Персі.
Drool 
VIP


З нами з: 17.04.10
Востаннє: 03.12.16
Повідомлень: 1262

2013-11-29 12:19  
Stepan2009 написано:
Головний актор - дитина - зовсім не підходить на роль Персі.

Так і фільм про підлітків Happy

KeryaS 
Новенький


З нами з: 01.09.14
Востаннє: 04.12.16
Повідомлень: 2

2016-09-22 18:33  
Будь-ласка, підтримайте цю роздачу!
Ваш часовий пояс: GMT + 2 Години

Нова тема   Відповісти