Завантажити та скачати торренти українською


Сусідка [Розширена версія] / The Girl Next Door [Unrated] (2004) 720p Ukr/Eng | Sub Eng/Multi

Нові коментарі

Нова тема   Відповісти
Автор Повідомлення
Anonymous 







2013-11-27 18:23  
Сусідка [Розширена версія] / The Girl Next Door [Unrated] (2004) 720p Ukr/Eng | Sub Eng/Multi



Жанр: мелодрама, комедія, молодіжний
Країна: США



Кінокомпанія: Regency Enterprises, New Regency Pictures, Daybreak, Epsilon Motion Pictures
Режисер: Люк Ґрінфілд / Luke Greenfield
Актори: Еміль Хірш / Emile Hirsch, Еліша Катберт / Elisha Cuthbert, Тімоті Оліфант / Timothy Olyphant, Джеймс Рімар / James Remar, Кріс Маркет / Chris Marquette, Пол Дано / Paul Dano, Тімоті Боттомс / Timothy Bottoms, Донна Баллок / Donna Bullock, Джейкоб Янг / Jacob Young, Олівія Вайлд / Olivia Wilde та інші

Сюжет:
Старшокласник Метью, який був найкращим учнем школи, мріяв про кар'єру політика. Він навіть збирав благодійні кошти для одного талановитого учня з Камбоджі, щоб той міг приїхати навчатися до Америки. Метью був першим претендентом на отримання стипендії для вступу до коледжу. І все було б добре, якби одного разу він не помітив, що у нього з'явилася нова сусідка, невимовно вродлива 19-річна блондинка Деніель. Між ними розгорається неймовірна дружба, Метью почуває себе на сьомому небі від щастя і врешті розуміє, що закохався у неї.

Але несподівано все ускладнюється, бо виявляється, що Деніел - порнозірка...



Рейтинг MPAA: NC-17 - особи до 17 років не допускаються до перегляду - саме розширена версія має такий рейтинг, ось порівняння R та Unrated версій фільму
Вікова категорія: 18+


Тривалість: 01:49:28
Якість: 720p
Відео:
кодек:
розмір кадру: 1280 x 694
бітрейт: 7118 кб/с

Аудіо # 1:
мова: українська - Новий Канал
переклад: двоголосий закадровий
ролі озвучили: Юлія Перенчук та Павло Скороходько
кодек: 2.0
бітрейт: 192 кб/с

Аудіо # 2:
мова: англійська
переклад: оригінал
кодек: 5.1
бітрейт: 1536 кб/с

Аудіо # 3-6:
мова: англійська
переклад: коментарі режисера Люка Ґрінфілда / Еміля Хірша / Еліши Катберт
кодек: 2.0
бітрейт: 192 кб/с

Субтитри # 1:
мова: українська (форсовані, на неозвучені епізоди розширеної версії)
тип: програмні (м'які)
формат: *.srt

Субтитри # 2-8:
мова: англійська, чеська, фінська, французька, угорська, іспанська, шведська
тип: програмні (м'які)
формат: *.srt
MediaInfo
Код:
General
Unique ID                                : 195647270744545695769154708319613888544 (0x93304B31A8315C09B4825BAA5B262820)
Complete name                            : The Girl Next Door [Unrated] (2004) [Ukr,Eng sub.Multi] 720p [Hurtom & HDCLUB].mkv
Format                                   : Matroska
Format version                           : Version 4 / Version 2
File size                                : 7.19 GiB
Duration                                 : 1h 49mn
Overall bit rate                         : 9 398 Kbps
Movie name                               : Сусідка / The Girl Next Door [UNRATED] (2004) [Hurtom & HDClub]
Encoded date                             : UTC 2013-11-27 05:22:55
Writing application                      : mkvmerge v6.5.0 ('Isn't she lovely') built on Oct 20 2013 12:50:05
Writing library                          : libebml v1.3.0 + libmatroska v1.4.1

Video
ID                                       : 1
Format                                   : AVC
Format/Info                              : Advanced Video Codec
Format profile                           : [email protected]
Format settings, CABAC                   : Yes
Format settings, ReFrames                : 9 frames
Codec ID                                 : V_MPEG4/ISO/AVC
Duration                                 : 1h 49mn
Bit rate                                 : 7 118 Kbps
Width                                    : 1 280 pixels
Height                                   : 694 pixels
Display aspect ratio                     : 1.85:1
Frame rate mode                          : Constant
Frame rate                               : 23.976 fps
Color space                              : YUV
Chroma subsampling                       : 4:2:0
Bit depth                                : 8 bits
Scan type                                : Progressive
Bits/(Pixel*Frame)                       : 0.334
Stream size                              : 5.30 GiB (74%)
Title                                    : Сусідка / The Girl Next Door [UNRATED] / Соседка (2004) 720p [RuDE, HDClub]
Writing library                          : core 68 r1183M f21daff
Encoding settings                        : cabac=1 / ref=9 / deblock=1:-3:-3 / analyse=0x3:0x113 / me=umh / subme=9 / psy_rd=0.8:0.7 / mixed_ref=1 / me_range=32 / chroma_me=1 / trellis=2 / 8x8dct=1 / cqm=0 / deadzone=21,11 / chroma_qp_offset=-4 / threads=6 / nr=0 / decimate=1 / mbaff=0 / bframes=4 / b_pyramid=1 / b_adapt=2 / b_bias=0 / direct=3 / wpredb=1 / keyint=250 / keyint_min=25 / scenecut=40 / rc=2pass / bitrate=7118 / ratetol=1.0 / qcomp=0.60 / qpmin=10 / qpmax=51 / qpstep=4 / cplxblur=20.0 / qblur=0.5 / vbv_maxrate=50000 / vbv_bufsize=50000 / ip_ratio=1.40 / pb_ratio=1.30 / aq=1:0.70
Language                                 : English
Default                                  : Yes
Forced                                   : No

Audio #1
ID                                       : 2
Format                                   : AC-3
Format/Info                              : Audio Coding 3
Mode extension                           : CM (complete main)
Format settings, Endianness              : Big
Codec ID                                 : A_AC3
Duration                                 : 1h 49mn
Bit rate mode                            : Constant
Bit rate                                 : 192 Kbps
Channel count                            : 2 channels
Channel positions                        : Front: L R
Sampling rate                            : 48.0 KHz
Bit depth                                : 16 bits
Compression mode                         : Lossy
Stream size                              : 150 MiB (2%)
Title                                    : MVO [Novyj] 2.0 192 kbps [Hurtom-voin747]
Language                                 : Ukrainian
Default                                  : Yes
Forced                                   : No

Audio #2
ID                                       : 3
Format                                   :
Format/Info                              : Digital Theater Systems
Mode                                     : 16
Format settings, Endianness              : Big
Codec ID                                 : A_DTS
Duration                                 : 1h 49mn
Bit rate mode                            : Constant
Bit rate                                 : 1 509 Kbps
Channel count                            : 6 channels
Channel positions                        : Front: L C R, Side: L R, LFE
Sampling rate                            : 48.0 KHz
Bit depth                                : 24 bits
Compression mode                         : Lossy
Stream size                              : 1.15 GiB (16%)
Title                                    : Original 5.1 1536 Kbps
Language                                 : English
Default                                  : No
Forced                                   : No

Audio #3
ID                                       : 4
Format                                   : AC-3
Format/Info                              : Audio Coding 3
Mode extension                           : CM (complete main)
Format settings, Endianness              : Big
Codec ID                                 : A_AC3
Duration                                 : 1h 49mn
Bit rate mode                            : Constant
Bit rate                                 : 192 Kbps
Channel count                            : 2 channels
Channel positions                        : Front: L R
Sampling rate                            : 48.0 KHz
Bit depth                                : 16 bits
Compression mode                         : Lossy
Stream size                              : 150 MiB (2%)
Title                                    : 2.0 192 Kbps Commentary by Director Luke Greenfield
Language                                 : English
Default                                  : No
Forced                                   : No

Audio #4
ID                                       : 5
Format                                   : AC-3
Format/Info                              : Audio Coding 3
Mode extension                           : CM (complete main)
Format settings, Endianness              : Big
Codec ID                                 : A_AC3
Duration                                 : 1h 49mn
Bit rate mode                            : Constant
Bit rate                                 : 192 Kbps
Channel count                            : 2 channels
Channel positions                        : Front: L R
Sampling rate                            : 48.0 KHz
Bit depth                                : 16 bits
Compression mode                         : Lossy
Stream size                              : 150 MiB (2%)
Title                                    : 2.0 192 Kbps Scene Specific Commentary by Emile Hirsch
Language                                 : English
Default                                  : No
Forced                                   : No

Audio #5
ID                                       : 6
Format                                   : AC-3
Format/Info                              : Audio Coding 3
Mode extension                           : CM (complete main)
Format settings, Endianness              : Big
Codec ID                                 : A_AC3
Duration                                 : 1h 49mn
Bit rate mode                            : Constant
Bit rate                                 : 192 Kbps
Channel count                            : 2 channels
Channel positions                        : Front: L R
Sampling rate                            : 48.0 KHz
Bit depth                                : 16 bits
Compression mode                         : Lossy
Stream size                              : 150 MiB (2%)
Title                                    : 2.0 192 Kbps Scene Specific Commentary by Elisha Cuthbert
Language                                 : English
Default                                  : No
Forced                                   : No

Text #1
ID                                       : 7
Format                                   : UTF-8
Codec ID                                 : S_TEXT/UTF8
Codec ID/Info                            : UTF-8 Plain Text
Title                                    : Ukr forced
Language                                 : Ukrainian
Default                                  : Yes
Forced                                   : Yes

Text #2
ID                                       : 8
Format                                   : UTF-8
Codec ID                                 : S_TEXT/UTF8
Codec ID/Info                            : UTF-8 Plain Text
Language                                 : English
Default                                  : No
Forced                                   : No

Text #3
ID                                       : 9
Format                                   : UTF-8
Codec ID                                 : S_TEXT/UTF8
Codec ID/Info                            : UTF-8 Plain Text
Language                                 : Czech
Default                                  : No
Forced                                   : No

Text #4
ID                                       : 10
Format                                   : UTF-8
Codec ID                                 : S_TEXT/UTF8
Codec ID/Info                            : UTF-8 Plain Text
Language                                 : Finnish
Default                                  : No
Forced                                   : No

Text #5
ID                                       : 11
Format                                   : UTF-8
Codec ID                                 : S_TEXT/UTF8
Codec ID/Info                            : UTF-8 Plain Text
Language                                 : French
Default                                  : No
Forced                                   : No

Text #6
ID                                       : 12
Format                                   : UTF-8
Codec ID                                 : S_TEXT/UTF8
Codec ID/Info                            : UTF-8 Plain Text
Language                                 : Hungarian
Default                                  : No
Forced                                   : No

Text #7
ID                                       : 13
Format                                   : UTF-8
Codec ID                                 : S_TEXT/UTF8
Codec ID/Info                            : UTF-8 Plain Text
Language                                 : Spanish
Default                                  : No
Forced                                   : No

Text #8
ID                                       : 14
Format                                   : UTF-8
Codec ID                                 : S_TEXT/UTF8
Codec ID/Info                            : UTF-8 Plain Text
Language                                 : Swedish
Default                                  : No
Forced                                   : No
Скріншот епізоду розширеної версії





Джерела та подяки: &
ріп відео, оригінальні звук та субтитри - HDClub; українська доріжка - voin747 - зведення, ratbol - запис з ТБ; українські форсовані субтитри - igor911, український постер - d1mma (всі - Гуртом).

Особиста оцінка: 7 - мені сподобалося


ЗАЛИШАЙТЕСЬ ЯКОМОГА ДОВШЕ НА РОЗДАЧІ!

СКАЧАВ САМ - ДАЙ СКАЧАТИ ІНШИМ


Срібний реліз (на рейтинг впливає 50% завантаженого)
 Трекер:    Зареєстрований   

Завантажити / скачати фільм українською



відео для новачків



 Зареєстрований:   2013-11-27 18:23
 Розмір:   7.19 GB 
 Оцінка фільму:   5.2/10 (Голосів: 19)
   
Інші релізи
vjycnh2012 
Новенький


З нами з: 27.09.12
Востаннє: 28.11.16
Повідомлень: 21

2013-12-02 17:15  

Ваш часовий пояс: GMT + 2 Години

Нова тема   Відповісти