Завантажити та скачати торренти українською


Січгарт - До Зброї! (2013) [FLAC] | Thrash Metal

Нові коментарі

Нова тема   Відповісти
Автор Повідомлення
Anonymous 







2013-11-27 14:01  
Січгарт - До Зброї! (2013) [FLAC] | Thrash Metal

Січгарт - До Зброї! (2013) [FLAC] | Thrash Metal


Стиль: Thrash Metal
Країна, місто: Україна, Київ
Видавець: Гурт
Виконавці:
Валерій Riff Гаврилюк – гітара, вокал, лірика
Михайло Grizz Возненко – гітара
Сергій Sirko Бердичевський – бас
Лев Levek Курганський – ударні
Пісні:
    01. Прокинься, Воїн!
    02. Вершник
    03. Кривавий Бруд
    04. Морок'33
    05. Смерть Не Вирок
    06. До Зброї!
    07. Зірка Полин
    08. Шлях Крізь Пекло
    09. Час Померти
    10. Підманула (Bonus Track)

Тривалість: 00:38:13
Мова: українська
Аудіо-кодек: FLAC
Бітрейт: 1009 кб/с
Джерело: Інтернет
Додаткова інформація:
Січгарт - український треш-метал гурт. Лірика Січгарт присвячена козацтву та війнам, тексти несуть у собі відродження національного духу, нагадують про історичне минуле та загострюють увагу на соціальних проблемах.
log

Exact Audio Copy V1.0 beta 3 from 29. August 2011

EAC extraction logfile from 20. October 2013, 12:57

Січгарт / До Зброї

Used drive : Optiarc DVD RW AD-7710H Adapter: 0 ID: 0

Read mode : Secure
Utilize accurate stream : Yes
Defeat audio cache : Yes
Make use of C2 pointers : No

Read offset correction : 48
Overread into Lead-In and Lead-Out : No
Fill up missing offset samples with silence : Yes
Delete leading and trailing silent blocks : No
Null samples used in CRC calculations : Yes
Used interface : Native Win32 interface for Win NT & 2000

Used output format : User Defined Encoder
Selected bitrate : 128 kBit/s
Quality : High
Add ID3 tag : Yes
Command line compressor : C:\Program Files (x86)\Exact Audio Copy\Flac\flac.exe
Additional command line options : -V -8 -T "Date=%year%" -T "Genre=%genre%" %source%

TOC of the extracted CD

Track | Start | Length | Start sector | End sector
---------------------------------------------------------
1 | 0:00.00 | 2:02.02 | 0 | 9151
2 | 2:02.02 | 4:51.62 | 9152 | 31038
3 | 6:53.64 | 3:50.02 | 31039 | 48290
4 | 10:43.66 | 5:54.55 | 48291 | 74895
5 | 16:38.46 | 3:40.17 | 74896 | 91412
6 | 20:18.63 | 6:08.02 | 91413 | 119014
7 | 26:26.65 | 2:19.17 | 119015 | 129456
8 | 28:46.07 | 3:33.40 | 129457 | 145471
9 | 32:19.47 | 6:12.55 | 145472 | 173426
10 | 38:32.27 | 4:23.32 | 173427 | 193183

Range status and errors

Selected range

Filename D:\січгарт\Січгарт - До Зброї.wav

Peak level 100.0 %
Extraction speed 3.6 X
Range quality 100.0 %
Test CRC D82A4713
Copy CRC D82A4713
Copy OK

No errors occurred

End of status report

==== Log checksum BB63E356C35D873C0B7B6A2D4077C0CFD529DDB1C156BEA87A4932D448A22538 ====
Також на Толоці Ви можете завантажити даний альбом в мр3:
тут


Якщо Ви справді бажаєте підтримати українське - після прослуховування, якщо музика вам сподобалась, придбайте ліцензійний диск. Підтримаймо вітчизняних виконавців!


Срібний реліз (на рейтинг впливає 50% завантаженого)
 Трекер:    Зареєстрований   

Завантажити / скачати українську музику



відео для новачків



 Зареєстрований:   2013-11-27 14:01
 Розмір:   361 MB 
 Оцінка музики:   9.7/10 (Голосів: 7)
   
Ваш часовий пояс: GMT + 2 Години

Нова тема   Відповісти