Завантажити та скачати торренти українською


Елізіум / Elysium (2013) 1080p Ukr/Eng | sub Eng

Нові коментарі

Нова тема   Відповісти
Автор Повідомлення
Anonymous 







2013-11-26 14:50  
Елізіум / Elysium (2013) 1080p Ukr/Eng | sub Eng



Жанр: фантастика, бойовик, трилер, драма
Країна: США



Кінокомпанія: TriStar Pictures, Alpha Core, Media Rights Capital, QED International, Simon Kinberg Productions, Sony Pictures Entertainment; мейджор – Buena Vista Sony Pictures Releasing (BVSPR)
Режисер: Ніл Бломкамп / Neill Blomkamp
Актори: Мет Деймон / Matt Damon, Джоді Фостер / Jodie Foster, Шарлто Коплі / Sharlto Copley, Еліс Брага / Alice Braga, Дієго Луна / Diego Luna, Вагнер Моура / Wagner Moura, Вільям Фіхтнер / William Fichtner та інші

Сюжет:
У 2154 році існує два класи людей: дуже багаті, що живуть та «решта». Перші живуть на чистій, створеній людьми, космічній станції під назвою Елізіум, другі — на перенаселеній напівзруйнованій Землі. Безжалісний урядовець, амбіційна міністр оборони Делакур (Джоді Фостер) не зупиниться ні перед чим, щоб привести до виконання жорсткі анти-імміграційні закони і зберегти розкішне життя громадян станції. Це, однак, не зупиняє мешканців Землі від спроб за будь-яку ціну проникнути на Елізіум. Коли невдаху Макса (Мет Деймон) заганяють у кут, він погоджується піти на ризиковану місію, яка в разі успіху не лише врятує йому життя, але й зменшить прірву рівня життя між двома світами.



Рейтинг MPAA: R - особам до 17 років обов'язкова присутність батьків або дорослого опікуна
Вікова категорія: 16+


Тривалість: 01:49:35
Якість: 1080p
Відео:
кодек:
розмір кадру: 1920x804
бітрейт: 12.3 Мбіт/с

Аудіо # 1:
мова: українська - LeDoyen Studio
переклад: професійний дубльований
кодек: 5.1
бітрейт: 640 кб/с

Аудіо # 2:
мова: англійська
переклад: оригінал
кодек: 5.1
бітрейт: 1536 кб/с

Українські форсовані субтитри на неозвучені фрази іспанською/іншими мовами (окремо): завантажити
переклад (з російської): Drool, редагування моє.

Субтитри:
мова: англійська
тип: програмні (м'які)
формат: *.srt

Збережено оригінальні розділи, як на Blu-ray.
MediaInfo
General
Unique ID : 219071668226570461014418048192021517988 (0xA4CFAB28167C34339D38C054F807D6A4)
Complete name : Elysium (2013) [Ukr,Eng sub.Eng] 1080p [Hurtom & CMEGRoup].mkv
Format : Matroska
Format version : Version 4 / Version 2
File size : 11.1 GiB
Duration : 1h 49mn
Overall bit rate : 14.4 Mbps
Movie name : Елізіум / Elysium (2013) 1080p [Hurtom & CMEGRoup]
Encoded date : UTC 2013-11-26 16:11:28
Writing application : mkvmerge v6.5.0 ('Isn't she lovely') built on Oct 20 2013 12:50:05
Writing library : libebml v1.3.0 + libmatroska v1.4.1

Video
ID : 1
Format : AVC
Format/Info : Advanced Video Codec
Format profile : [email protected]
Format settings, CABAC : Yes
Format settings, ReFrames : 4 frames
Codec ID : V_MPEG4/ISO/AVC
Duration : 1h 49mn
Bit rate : 12.3 Mbps
Width : 1 920 pixels
Height : 804 pixels
Display aspect ratio : 2.40:1
Frame rate mode : Constant
Frame rate : 23.976 fps
Color space : YUV
Chroma subsampling : 4:2:0
Bit depth : 8 bits
Scan type : Progressive
Bits/(Pixel*Frame) : 0.332
Stream size : 9.19 GiB (83%)
Title : Елізіум / Elysium / Элизиум: Рай не на Земле (2013) 1080p [CMEGRoup]
Writing library : core 133 r2334 a3ac64b
Encoding settings : cabac=1 / ref=4 / deblock=1:-3:-3 / analyse=0x3:0x113 / me=umh / subme=11 / psy=1 / psy_rd=1.00:0.00 / mixed_ref=1 / me_range=48 / chroma_me=1 / trellis=2 / 8x8dct=1 / cqm=0 / deadzone=21,11 / fast_pskip=1 / chroma_qp_offset=-2 / threads=12 / lookahead_threads=1 / sliced_threads=0 / nr=0 / decimate=1 / interlaced=0 / bluray_compat=0 / constrained_intra=0 / bframes=5 / b_pyramid=2 / b_adapt=1 / b_bias=0 / direct=2 / weightb=1 / open_gop=0 / weightp=2 / keyint=240 / keyint_min=23 / scenecut=40 / intra_refresh=0 / rc_lookahead=40 / rc=2pass / mbtree=1 / bitrate=12300 / ratetol=1.0 / qcomp=0.60 / qpmin=10 / qpmax=51 / qpstep=4 / cplxblur=20.0 / qblur=0.5 / vbv_maxrate=62500 / vbv_bufsize=78125 / nal_hrd=none / ip_ratio=1.40 / aq=1:1.00 / zones=148974,157654,q=40
Language : English
Default : Yes
Forced : No

Audio #1
ID : 2
Format : AC-3
Format/Info : Audio Coding 3
Mode extension : CM (complete main)
Format settings, Endianness : Big
Codec ID : A_AC3
Duration : 1h 49mn
Bit rate mode : Constant
Bit rate : 640 Kbps
Channel count : 6 channels
Channel positions : Front: L C R, Side: L R, LFE
Sampling rate : 48.0 KHz
Bit depth : 16 bits
Compression mode : Lossy
Stream size : 502 MiB (4%)
Title : Dub [LeDoyen, Blu-ray] 5.1 640 kbps
Language : Ukrainian
Default : Yes
Forced : No

Audio #2
ID : 3
Format :
Format/Info : Digital Theater Systems
Mode : 16
Format settings, Endianness : Big
Codec ID : A_DTS
Duration : 1h 49mn
Bit rate mode : Constant
Bit rate : 1 509 Kbps
Channel count : 6 channels
Channel positions : Front: L C R, Side: L R, LFE
Sampling rate : 48.0 KHz
Bit depth : 24 bits
Compression mode : Lossy
Stream size : 1.16 GiB (10%)
Title : Original 5.1 1536 kbps
Language : English
Default : No
Forced : No

Text
ID : 4
Format : UTF-8
Codec ID : S_TEXT/UTF8
Codec ID/Info : UTF-8 Plain Text
Title : Eng full
Language : English
Default : No
Forced : No

Menu
00:00:00.000 : en:00:00:00.000
00:07:02.589 : en:00:07:02.589
00:11:59.344 : en:00:11:59.344
00:19:27.625 : en:00:19:27.625
00:25:34.825 : en:00:25:34.825
00:30:02.342 : en:00:30:02.342
00:39:22.068 : en:00:39:22.068
00:57:43.960 : en:00:57:43.960
01:00:59.197 : en:01:00:59.197
01:04:09.637 : en:01:04:09.637
01:07:22.664 : en:01:07:22.664
01:10:34.147 : en:01:10:34.147
01:16:59.865 : en:01:16:59.865
01:22:50.132 : en:01:22:50.132
01:30:19.914 : en:01:30:19.914
01:35:44.530 : en:01:35:44.530


Джерело: &

Особиста оцінка: 7,5 - непоганий екшн, але ідею фільму можна було допрацювати


 Трекер:    Зареєстрований   

Завантажити / скачати фільм українською



відео для новачків



 Зареєстрований:   2013-11-26 18:19
 Розмір:   11.06 GB 
 Оцінка фільму:   7.3/10 (Голосів: 36)
   
Інші релізи
   Елізіум / Elysium (2013) 720p-mini Drool  9 / 0   2.49 GB   2013-11-29 10:19 
   Елізіум / Elysium (2013) AVC patriot2305  8 / 0   2.26 GB   2013-11-27 19:02 
   Елізіум / Elysium (2013) Ukr/Eng AngryBirdsUA  10 / 1   2.18 GB   2013-11-27 14:22 
   Елізіум / Elysium (2013) Jatx_11  14 / 0   1.46 GB   2013-11-26 17:34 
   Елізіум / Elysium (2013) 720p Ukr/Eng | sub Eng akon111  9 / 0   5.5 GB   2013-11-26 17:18 
   Елізіум / Elysium (2013) Blu-ray CEE Multi | Sub Multi smak2001  2 / 0   41.97 GB   2013-11-26 15:54 
bot 
робот


З нами з: 30.09.07
Востаннє: 26.05.05
Повідомлень: 16030

2013-11-26 18:18  
Тему перенесено з Анонси релізів до форуму Фільми в HD


igor911

ratbol 
Модератор HD


З нами з: 03.02.09
Востаннє: 07.12.16
Повідомлень: 1088

2013-11-30 20:50  
Шкода, що образу не було форсованих сабів. Здавалося б так просто перекласти декілька реплік з російської, але скільки користі. Дякую тим, хто цим зайнявся.
Anonymous 







2013-11-30 21:01  
ratbol написано:
Шкода, що образу не було форсованих сабів

Як завжди поспіх при підготовці релізів новинок - бо навіть "свої" модератори ("Кіно" зокрема) можуть перейти дорогу не дивлячись на анонс (вже були прецеденти) + звик, що українською дублюють всі важливі написи та неангломовні діалоги + інші попередні релізи теж були без форсованих сабів.

Пєчкін 
Новенький


З нами з: 04.07.11
Востаннє: 21.07.16
Повідомлень: 16

2013-12-08 12:04  
Дякую автору. Кіно хороше.
13Mark 
Поважний учасник


З нами з: 25.04.08
Востаннє: 08.12.16
Повідомлень: 179

2014-01-01 17:41  
В порівнянні з усім г... яке знімають останнім часом, не поганий фільм, хоча звісно йому далеко до District 9.
І так сабів трохи бракує)

Anonymous 







2014-01-01 17:45  
13Mark, саби окремо є в шапці.
13Mark 
Поважний учасник


З нами з: 25.04.08
Востаннє: 08.12.16
Повідомлень: 179

2014-01-01 17:46  
igor911
соррі, не помітив=)

Ваш часовий пояс: GMT + 2 Години

Нова тема   Відповісти