Завантажити та скачати торренти українською


Виклик / Defiance (2008) 720p 2xUkr/Eng | Sub Multi

Нові коментарі

Нова тема   Відповісти
Автор Повідомлення
Anonymous 







2013-11-25 15:38  
Виклик / Defiance (2008) 720p 2xUkr/Eng | Sub Multi



Альтернативний постер



Жанр: бойовик, трилер, драма, військовий, історичний
Країна: США



Кінокомпанія: Paramount Vantage, Grosvenor Park Productions, Bedford Falls Company, Defiance Productions, Pistachio Pictures
Режисер: Едвард Цвік / Edward Zwick
Актори: Деніел Крейґ / Daniel Craig, Лів Шрайбер / Liev Schreiber, Джемі Белл / Jamie Bell, Алекса Давалос / Alexa Davalos, Аллан Кордунер / Allan Corduner, Марк Фоєрстін / Mark Feuerstein, Томас Арана / Tomas Arana та інші

Сюжет:
Троє братів-євреїв втікають з окупованої Польщі в білоруські ліси, де приєднуються до антифашистської боротьби і оголошують війну окупантам.



Рейтинг MPAA: R - особам до 17 років обов'язкова присутність батьків або дорослого опікуна
Вікова категорія: 15+


Тривалість: 02:16:48
Якість: 1080p [WiKi]
Відео:
кодек:
розмір кадру: 1280 x 720
бітрейт: 5288 кб/с

Аудіо # 1: Так Треба Продакшн для
мова: українська
переклад: багатоголосий закадровий
кодек: 2.0
бітрейт: 192 кб/с

Аудіо # 2:
мова: українська
переклад: багатоголосий закадровий
кодек: 2.0
бітрейт: 192 кб/с

Аудіо # 3:
мова: англійська
переклад: оригінал
кодек: 5.1
бітрейт: 1536 кб/с

Аудіо # 4:
мова: англійська
переклад: коментарі
кодек: OGG
бітрейт: 80 кб/с

Субтитри: # 1-10
мова: англійські, чеські, данські, фінські, французькі, угорські, румунські, словенські, іспанські, шведські
тип: програмні (м'які)
формат: *.ass
MediaInfo
Код:
General
Unique ID                                : 240965467977404706864868163860242753635 (0xB54842D3216C999E94CA4DEB8359E863)
Complete name                            : Defiance (2008) [2xUkr,Eng sub.Multi] 720p [Hurtom].mkv
Format                                   : Matroska
Format version                           : Version 4 / Version 2
File size                                : 6.94 GiB
Duration                                 : 2h 16mn
Overall bit rate mode                    : Variable
Overall bit rate                         : 7 262 Kbps
Movie name                               : Виклик / Defiance (2008) 720p [Hurtom]
Encoded date                             : UTC 2013-11-25 10:55:12
Writing application                      : mkvmerge v6.5.0 ('Isn't she lovely') built on Oct 20 2013 12:50:05
Writing library                          : libebml v1.3.0 + libmatroska v1.4.1
Attachment                               : Yes / Yes / Yes

Video
ID                                       : 1
Format                                   : AVC
Format/Info                              : Advanced Video Codec
Format profile                           : [email protected]
Format settings, CABAC                   : Yes
Format settings, ReFrames                : 8 frames
Codec ID                                 : V_MPEG4/ISO/AVC
Duration                                 : 2h 16mn
Bit rate                                 : 5 288 Kbps
Width                                    : 1 280 pixels
Height                                   : 720 pixels
Display aspect ratio                     : 16:9
Frame rate mode                          : Constant
Frame rate                               : 23.976 fps
Color space                              : YUV
Chroma subsampling                       : 4:2:0
Bit depth                                : 8 bits
Scan type                                : Progressive
Bits/(Pixel*Frame)                       : 0.239
Stream size                              : 4.92 GiB (71%)
Title                                    : Виклик / Defiance / Вызов (2008) 720p [WiKi]
Writing library                          : core 67 r1153M 7b6ce6a
Encoding settings                        : cabac=1 / ref=8 / deblock=1:-3:-3 / analyse=0x3:0x133 / me=umh / subme=9 / psy_rd=0.9:0.0 / mixed_ref=1 / me_range=32 / chroma_me=1 / trellis=2 / 8x8dct=1 / cqm=0 / deadzone=21,11 / chroma_qp_offset=-2 / threads=6 / nr=0 / decimate=0 / mbaff=0 / bframes=8 / b_pyramid=1 / b_adapt=2 / b_bias=0 / direct=3 / wpredb=1 / keyint=250 / keyint_min=25 / scenecut=40 / rc=2pass / bitrate=5288 / ratetol=1.0 / qcomp=0.60 / qpmin=10 / qpmax=51 / qpstep=4 / cplxblur=20.0 / qblur=0.5 / ip_ratio=1.40 / pb_ratio=1.30 / aq=1:0.90
Language                                 : English
Default                                  : Yes
Forced                                   : No

Audio #1
ID                                       : 2
Format                                   : AC-3
Format/Info                              : Audio Coding 3
Mode extension                           : CM (complete main)
Format settings, Endianness              : Big
Codec ID                                 : A_AC3
Duration                                 : 2h 16mn
Bit rate mode                            : Constant
Bit rate                                 : 192 Kbps
Channel count                            : 2 channels
Channel positions                        : Front: L R
Sampling rate                            : 48.0 KHz
Bit depth                                : 16 bits
Compression mode                         : Lossy
Stream size                              : 188 MiB (3%)
Title                                    : MVO [Inter] 2.0 192 kbps [Hurtom-patriot2305]
Language                                 : Ukrainian
Default                                  : Yes
Forced                                   : No

Audio #2
ID                                       : 3
Format                                   : AC-3
Format/Info                              : Audio Coding 3
Mode extension                           : CM (complete main)
Format settings, Endianness              : Big
Codec ID                                 : A_AC3
Duration                                 : 2h 16mn
Bit rate mode                            : Constant
Bit rate                                 : 192 Kbps
Channel count                            : 2 channels
Channel positions                        : Front: L R
Sampling rate                            : 48.0 KHz
Bit depth                                : 16 bits
Compression mode                         : Lossy
Stream size                              : 188 MiB (3%)
Title                                    : MVO [ICTV] 2.0 192 kbps [Hurtom-voin747]
Language                                 : Ukrainian
Default                                  : No
Forced                                   : No

Audio #3
ID                                       : 4
Format                                   :
Format/Info                              : Digital Theater Systems
Mode                                     : 16
Format settings, Endianness              : Big
Codec ID                                 : A_DTS
Duration                                 : 2h 16mn
Bit rate mode                            : Constant
Bit rate                                 : 1 510 Kbps
Channel count                            : 6 channels
Channel positions                        : Front: L C R, Side: L R, LFE
Sampling rate                            : 48.0 KHz
Bit depth                                : 24 bits
Compression mode                         : Lossy
Stream size                              : 1.44 GiB (21%)
Title                                    : Original 5.1 1536 kbps
Language                                 : English
Default                                  : No
Forced                                   : No

Audio #4
ID                                       : 5
Format                                   : Vorbis
Format settings, Floor                   : 1
Codec ID                                 : A_VORBIS
Duration                                 : 2h 16mn
Bit rate mode                            : Variable
Bit rate                                 : 80.0 Kbps
Channel count                            : 2 channels
Sampling rate                            : 48.0 KHz
Compression mode                         : Lossy
Stream size                              : 78.3 MiB (1%)
Title                                    : Commentary
Writing library                          : libVorbis 1.1.1/1.1.2 (UTC 2005-03-04)
Language                                 : English
Default                                  : No
Forced                                   : No

Text #1
ID                                       : 6
Format                                   : ASS
Codec ID                                 : S_TEXT/ASS
Codec ID/Info                            : Advanced Sub Station Alpha
Compression mode                         : Lossless
Language                                 : English
Default                                  : Yes
Forced                                   : No

Text #2
ID                                       : 7
Format                                   : ASS
Codec ID                                 : S_TEXT/ASS
Codec ID/Info                            : Advanced Sub Station Alpha
Compression mode                         : Lossless
Language                                 : Czech
Default                                  : No
Forced                                   : No

Text #3
ID                                       : 8
Format                                   : ASS
Codec ID                                 : S_TEXT/ASS
Codec ID/Info                            : Advanced Sub Station Alpha
Compression mode                         : Lossless
Language                                 : Dutch
Default                                  : No
Forced                                   : No

Text #4
ID                                       : 9
Format                                   : ASS
Codec ID                                 : S_TEXT/ASS
Codec ID/Info                            : Advanced Sub Station Alpha
Compression mode                         : Lossless
Language                                 : Finnish
Default                                  : No
Forced                                   : No

Text #5
ID                                       : 10
Format                                   : ASS
Codec ID                                 : S_TEXT/ASS
Codec ID/Info                            : Advanced Sub Station Alpha
Compression mode                         : Lossless
Language                                 : French
Default                                  : No
Forced                                   : No

Text #6
ID                                       : 11
Format                                   : ASS
Codec ID                                 : S_TEXT/ASS
Codec ID/Info                            : Advanced Sub Station Alpha
Compression mode                         : Lossless
Language                                 : Hungarian
Default                                  : No
Forced                                   : No

Text #7
ID                                       : 12
Format                                   : ASS
Codec ID                                 : S_TEXT/ASS
Codec ID/Info                            : Advanced Sub Station Alpha
Compression mode                         : Lossless
Language                                 : Romanian
Default                                  : No
Forced                                   : No

Text #8
ID                                       : 13
Format                                   : ASS
Codec ID                                 : S_TEXT/ASS
Codec ID/Info                            : Advanced Sub Station Alpha
Compression mode                         : Lossless
Language                                 : Slovenian
Default                                  : No
Forced                                   : No

Text #9
ID                                       : 14
Format                                   : ASS
Codec ID                                 : S_TEXT/ASS
Codec ID/Info                            : Advanced Sub Station Alpha
Compression mode                         : Lossless
Language                                 : Spanish
Default                                  : No
Forced                                   : No

Text #10
ID                                       : 15
Format                                   : ASS
Codec ID                                 : S_TEXT/ASS
Codec ID/Info                            : Advanced Sub Station Alpha
Compression mode                         : Lossless
Language                                 : Swedish
Default                                  : No
Forced                                   : No




Джерела та подяки:
ріп відео, оригінальні звук та субтитри - Saemonz (WiKi); українські доріжки - patriot2305 (1), voin747 (2) - зведення, ratbol (1), MAKAPOHHIK (2) - запис з ТБ; український постер - hellforces (всі - Гуртом).


ЗАЛИШАЙТЕСЬ ЯКОМОГА ДОВШЕ НА РОЗДАЧІ!

СКАЧАВ САМ - ДАЙ СКАЧАТИ ІНШИМ


 Трекер:    Зареєстрований   

Завантажити / скачати фільм українською



відео для новачків



 Зареєстрований:   2013-11-25 15:38
 Розмір:   6.94 GB 
 Оцінка фільму:   4/10 (Голосів: 15)
   
Інші релізи
   Виклик / Defiance (2008) 2xUkr patriot2305  3 / 0   1.64 GB   2013-11-23 23:35 
   Виклик / Defiance (2008) Ukr/Eng | sub Eng JACKUS  2 / 1   2.61 GB   2011-06-25 00:56 
ProgBassing 
Відео Гуртом - фільмокрай
Відео Гуртом - фільмокрай


З нами з: 08.03.08
Востаннє: 09.12.16
Повідомлень: 608

2014-01-29 14:22  
Озвучка від ІСіТіВі краща ніж та інша!!! ...от тільки нафіга було перекладати (тим паче спотворюючи зміст сказаного) російськомовні репліки?!

Сам фільм непоганий, але й не надто переконливий, як з точки зору акторської гри, так і з технічної точки, монтаж слабенький і це кидається в очі :/ ...не Спілберґ же ж Wink (1)

Ваш часовий пояс: GMT + 2 Години

Нова тема   Відповісти