Завантажити та скачати торренти українською


Хроніки мутантів / Mutant Chronicles (2008) 1080p Ukr/Eng | Sub Ukr/Eng

Нові коментарі

Нова тема   Відповісти
Автор Повідомлення
Anonymous 







2013-11-25 10:26  
Хроніки мутантів / Mutant Chronicles (2008) 1080p Ukr/Eng | Sub Ukr/Eng



Жанр: жахи, фантастика, бойовик, пригодницький
Країна: США, Велика Британія



Кінокомпанія: Edward R. Pressman Film, First Foot Films, Grosvenor Park Productions
Режисер: Саймон Хантер / Simon Hunter
Актори: Томас Джейн / Thomas Jane, Рон Перлман / Ron Perlman, Девон Аокі / Devon Aoki, Шон Пертуї / Sean Pertwee, Бенно Фюрманн / Benno Fürmann, Джон Малкович / John Malkovich, Ганна Волтон / Anna Walton, Том Ву / Tom Wu, Стів Туссен / Steve Toussaint та інші

Сюжет:
Під кінець льодовикового періоду з'явилася Машина. Вона прилетіла ззовні з єдиною метою - перетворити людину на мутанта ...

2707 рік. В наслідок війни між корпораціями було зірвано печатки, встановлені древніми на Машині, що похована глибоко під землею. Машина починає працювати. Орди мутантів атакують людство. Корпорації об'єднуються проти нової загрози, але сили не рівні. Щасливчикам вдається евакуюватися у колоніальні світи. Решта людства приречені на вимирання. І тільки невеликий загін найвідважніших воїнів під командуванням майор Мітча Хантера відправляється вглиб підземель, щоб встановити древній механізм, який зруйнує Машину. Це єдина надія людства на виживання ...


Фільм знято за мотивами настільної рольової гри «Хроніки мутантів» (Mutant Chronicles, 1993).


Рейтинг MPAA: R - особам до 17 років обов'язкова присутність батьків або дорослого опікуна
Вікова категорія: 16+


Тривалість: 01:51:30
Якість: 1080p
Відео:
кодек:
розмір кадру: 1920 х 1036
бітрейт: 8620 кб/с

Аудіо # 1: [West Video]
мова: українська - AdiozProduction studio
переклад: багатоголосий закадровий (Сергій Ковальчук)
ролі озвучили: Олесь Гімбаржевський (Томас Джейн / Мітч Хантер), Михайло Жонін (Джон Малковіч / Константин), Борис Георгієвський (Рон Перлман / Брат Семюель), Євген Пашин, Юрій Ребрик, Тетяна Антонова? та інші
кодек: 5.1
бітрейт: 448 кб/с

Аудіо # 2:
мова: англійська
переклад: оригінал
кодек: 5.1
бітрейт: 448 кб/с

Субтитри # 1:
мова: українська
тип: програмні (м'які)
формат: *.srt

Субтитри # 2:
мова: англійська
тип: програмні (м'які)
формат: *.srt

Збережено оригінальні розділи, як на Blu-ray.
MediaInfo та
[info]: frame I:1196 Avg QP:14.70 size:182038
[info]: frame P:36053 Avg QP:17.83 size: 81774
[info]: frame B:123167 Avg QP:19.99 size: 32820
Код:
General
Unique ID                                : 188393620264243904278629789269364654671 (0x8DBB4A9D1CBBC29EAED0099EF26D424F)
Complete name                            : Mutant Chronicles (2008) [Ukr,Eng sub.Ukr,Eng] 1080p.mkv
Format                                   : Matroska
Format version                           : Version 4 / Version 2
File size                                : 7.41 GiB
Duration                                 : 1h 51mn
Overall bit rate                         : 9 517 Kbps
Movie name                               : Хроніки мутантів / Mutant Chronicles (2008) 1080p [AlexKa]
Encoded date                             : UTC 2013-11-25 07:11:14
Writing application                      : mkvmerge v6.5.0 ('Isn't she lovely') built on Oct 20 2013 12:50:05
Writing library                          : libebml v1.3.0 + libmatroska v1.4.1

Video
ID                                       : 1
Format                                   : AVC
Format/Info                              : Advanced Video Codec
Format profile                           : [email protected]
Format settings, CABAC                   : Yes
Format settings, ReFrames                : 4 frames
Codec ID                                 : V_MPEG4/ISO/AVC
Duration                                 : 1h 51mn
Bit rate                                 : 8 620 Kbps
Width                                    : 1 920 pixels
Height                                   : 1 036 pixels
Display aspect ratio                     : 1.85:1
Frame rate mode                          : Constant
Frame rate                               : 23.976 fps
Color space                              : YUV
Chroma subsampling                       : 4:2:0
Bit depth                                : 8 bits
Scan type                                : Progressive
Bits/(Pixel*Frame)                       : 0.181
Stream size                              : 6.57 GiB (89%)
Title                                    : Хроніки мутантів / Mutant Chronicles / Хроники мутантов (2008) 1080p [AlexKa]
Writing library                          : core 140 r2377 1ca7bb9
Encoding settings                        : cabac=1 / ref=4 / deblock=1:-3:-3 / analyse=0x3:0x133 / me=umh / subme=11 / psy=1 / psy_rd=1.00:0.00 / mixed_ref=1 / me_range=32 / chroma_me=1 / trellis=2 / 8x8dct=1 / cqm=0 / deadzone=21,11 / fast_pskip=0 / chroma_qp_offset=-2 / threads=12 / lookahead_threads=2 / sliced_threads=0 / nr=0 / decimate=0 / interlaced=0 / bluray_compat=0 / constrained_intra=0 / bframes=8 / b_pyramid=2 / b_adapt=2 / b_bias=0 / direct=3 / weightb=1 / open_gop=0 / weightp=2 / keyint=240 / keyint_min=23 / scenecut=40 / intra_refresh=0 / rc=2pass / mbtree=0 / bitrate=8620 / ratetol=1.0 / qcomp=0.60 / qpmin=0 / qpmax=69 / qpstep=4 / cplxblur=20.0 / qblur=0.5 / ip_ratio=1.40 / pb_ratio=1.30 / aq=1:0.60
Language                                 : English
Default                                  : Yes
Forced                                   : No

Audio #1
ID                                       : 2
Format                                   : AC-3
Format/Info                              : Audio Coding 3
Mode extension                           : CM (complete main)
Format settings, Endianness              : Big
Codec ID                                 : A_AC3
Duration                                 : 1h 51mn
Bit rate mode                            : Constant
Bit rate                                 : 448 Kbps
Channel count                            : 6 channels
Channel positions                        : Front: L C R, Side: L R, LFE
Sampling rate                            : 48.0 KHz
Bit depth                                : 16 bits
Compression mode                         : Lossy
Stream size                              : 357 MiB (5%)
Title                                    : MVO [AdiozProduction, Blu-ray West Video] 5.1 448 kbps
Language                                 : Ukrainian
Default                                  : Yes
Forced                                   : No

Audio #2
ID                                       : 3
Format                                   : AC-3
Format/Info                              : Audio Coding 3
Mode extension                           : CM (complete main)
Format settings, Endianness              : Big
Codec ID                                 : A_AC3
Duration                                 : 1h 51mn
Bit rate mode                            : Constant
Bit rate                                 : 448 Kbps
Channel count                            : 6 channels
Channel positions                        : Front: L C R, Side: L R, LFE
Sampling rate                            : 48.0 KHz
Bit depth                                : 16 bits
Compression mode                         : Lossy
Stream size                              : 357 MiB (5%)
Title                                    : Original 5.1 448 kbps
Language                                 : English
Default                                  : No
Forced                                   : No

Text #1
ID                                       : 4
Format                                   : UTF-8
Codec ID                                 : S_TEXT/UTF8
Codec ID/Info                            : UTF-8 Plain Text
Title                                    : Ukr full [Blu-ray West Video]
Language                                 : Ukrainian
Default                                  : No
Forced                                   : No

Text #2
ID                                       : 5
Format                                   : UTF-8
Codec ID                                 : S_TEXT/UTF8
Codec ID/Info                            : UTF-8 Plain Text
Title                                    : Eng full
Language                                 : English
Default                                  : No
Forced                                   : No

Menu
00:00:00.000                             : :Chapter 01
00:04:17.215                             : :Chapter 02
00:10:35.468                             : :Chapter 03
00:15:42.900                             : :Chapter 04
00:22:02.321                             : :Chapter 05
00:32:07.967                             : :Chapter 06
00:39:34.330                             : :Chapter 07
00:42:39.223                             : :Chapter 08
00:54:30.016                             : :Chapter 09
00:58:22.332                             : :Chapter 10
01:02:11.519                             : :Chapter 11
01:11:09.515                             : :Chapter 12
01:17:29.394                             : :Chapter 13
01:24:57.759                             : :Chapter 14
01:34:14.815                             : :Chapter 15
01:43:30.162                             : :Chapter 16




Джерела та подяки:
ріп відео, звук, субтитри - AlexKa (рутор)


ЗАЛИШАЙТЕСЬ ЯКОМОГА ДОВШЕ НА РОЗДАЧІ!

СКАЧАВ САМ - ДАЙ СКАЧАТИ ІНШИМ


 Трекер:    Зареєстрований   

Завантажити / скачати фільм українською



відео для новачків



 Зареєстрований:   2013-11-25 10:26
 Розмір:   7.41 GB 
 Оцінка фільму:   4.4/10 (Голосів: 16)
   
kmr 
Поважний учасник


З нами з: 18.04.10
Востаннє: 06.12.16
Повідомлень: 150

2013-11-25 14:27  
як фільм?)
Anonymous 







2013-11-25 14:29  
Я не дивився, відгуки можеш глянути на спеціалізованих сайтах типу імдб, кінопоіска...
Virake 
Localize Team
Localize Team


З нами з: 07.07.09
Востаннє: 10.12.16
Повідомлень: 4075

2013-11-25 20:25  
глянемо-глянемо...
Ваш часовий пояс: GMT + 2 Години

Нова тема   Відповісти