Завантажити та скачати торренти українською


Чиста Криниця - Доля (2008) [FLAC] | Pagan Black Metal

Нові коментарі

Нова тема   Відповісти
Автор Повідомлення
ssTAss 
Модератор музики


З нами з: 05.07.08
Востаннє: 10.12.16
Повідомлень: 10950

2013-11-24 17:32  
Чиста Криниця - Доля (2008) [FLAC] | Pagan Black Metal

Чиста Криниця - Доля (2008) [FLAC] | Pagan Black Metal


Стиль: Pagan Black Metal
Країна, місто: Україна, Харків
Сайти: Офіційний сайт
Видавець: Blasphemous Terror Records
Виконавці:
Руслан Криниця - барабани, вокал
Володимир Галайда - гітара
Тім Хресвельг - клавішні
Денис Svarg - бас
Пісні:
    1. Валькірія (Луна Війни)
    2. Доля
    3. Розлилися Криниці у Моїй Крові...
    4. Національна Берегиня
    5. Чумацький Шлях
    6. На Долині Туман
    7. Воин
    8. Копье Судьбы
    9. Олтар Нації
    10. Валькірія
    11. I see Death
log
Exact Audio Copy V0.99 prebeta 4 from 23. January 2008

EAC extraction logfile from 13. October 2010, 21:51

Чиста Криниця / Доля

Used drive : Optiarc DVD RW AD-7243S Adapter: 2 ID: 0

Read mode : Secure
Utilize accurate stream : Yes
Defeat audio cache : Yes
Make use of C2 pointers : No

Read offset correction : 48
Overread into Lead-In and Lead-Out : No
Fill up missing offset samples with silence : Yes
Delete leading and trailing silent blocks : No
Null samples used in CRC calculations : Yes
Used interface : Installed external ASPI interface

Used output format : User Defined Encoder
Selected bitrate : 768 kBit/s
Quality : High
Add ID3 tag : No
Command line compressor : C:\Program Files\Exact Audio Copy\FLAC\FLAC.EXE
Additional command line options : -6 -V -T "ARTIST=%a" -T "TITLE=%t" -T "ALBUM=%g" -T "DATE=%y" -T "TRACKNUMBER=%n" -T "GENRE=%m" -T "COMMENT=%e" %s -o %d

TOC of the extracted CD

Track | Start | Length | Start sector | End sector
---------------------------------------------------------
1 | 0:00.00 | 1:33.72 | 0 | 7046
2 | 1:33.72 | 9:56.18 | 7047 | 51764
3 | 11:30.15 | 6:20.09 | 51765 | 80273
4 | 17:50.24 | 5:48.57 | 80274 | 106430
5 | 23:39.06 | 7:35.01 | 106431 | 140556
6 | 31:14.07 | 4:03.67 | 140557 | 158848
7 | 35:17.74 | 3:04.52 | 158849 | 172700
8 | 38:22.51 | 4:45.09 | 172701 | 194084
9 | 43:07.60 | 5:50.18 | 194085 | 220352
10 | 48:58.03 | 8:22.40 | 220353 | 258042
11 | 57:20.43 | 13:13.18 | 258043 | 317535

Range status and errors

Selected range

Filename E:\Чиста Криниця - Доля.wav

Peak level 100.0 %
Range quality 99.9 %
Test CRC 6F4AE477
Copy CRC 6F4AE477
Copy OK

No errors occurred

AccurateRip summary

Track 1 not present in database
Track 2 not present in database
Track 3 not present in database
Track 4 not present in database
Track 5 not present in database
Track 6 not present in database
Track 7 not present in database
Track 8 not present in database
Track 9 not present in database
Track 10 not present in database
Track 11 not present in database

None of the tracks are present in the AccurateRip database

End of status report
fooCDtect
fooCDtect - foobar2000 + auCDtect, baralgin.

auCDtect: CD records authenticity detector, version 0.8.2
Copyright (c) 2004 Oleg Berngardt. All rights reserved.
Copyright (c) 2004 Alexander Djourik. All rights reserved.

mode: 0

===========================================
Track: 01 - Валькірія (Луна Війни)
Quality: CDDA 99%
===========================================
Track: 02 - Доля
Quality: CDDA 100%
===========================================
Track: 03 - Розлилися Криниці У Моїй Крові
Quality: CDDA 100%
===========================================
Track: 04 - Національна Берегиня
Quality: CDDA 100%
===========================================
Track: 05 - Чумацький Шлях
Quality: CDDA 100%
===========================================
Track: 06 - На Долині Туман...
Quality: CDDA 100%
===========================================
Track: 07 - Воин
Quality: CDDA 100%
===========================================
Track: 08 - Копье Судьбы
Quality: CDDA 100%
===========================================
Track: 09 - Олтар Нації
Quality: CDDA 100%
===========================================
Track: 10 - Валькірія
Quality: CDDA 99%
===========================================
Track: 11 - I see Death
Quality: CDDA 100%
===========================================
Тривалість: 01:10:34
Мова: українська, російська (7,8)
Аудіо-кодек: FLAC
Бітрейт: 910 кб/с
Джерело: інтернет
Додаткова інформація:
Під час запису цього альбому відбулися зміни: Чиста Криниця розірвала відносини з організацією "Патріот України" і почала організацію концертів самостійно. Відбулися також зміни складу: гурт покинули Євген та Дмитро. До гурту приєднався новий басист - Денис Svarg (гурт Madu) і вокаліст - Олександр (Leksamor), але в запису альбому він участі не брав після інцеденту на концерті з "Коррозия Металла". Його було доставлено швидкою у лікарню після зловживання алкоголем. Після цього Руслан Криниця вирішив співати за барабанами.

Новий склад: Руслан Криниця - барабани, вокал; Володимир Галайда - гітара; Тім Хресвельг - клавішні; Денис Svarg - бас

Альбом "Доля" має багато експерементів у нових стилях, трохи психоделічних текстів, нового саунду та gothic-атмосфери. Перший офіційний кліп "Національна Берегиня" гурт випустив саме під час запису цього альбому. Після випуску "Доля", "Чиста Криниця" разом з "Wolfenhords" випустили спліт-альбом "Slavonic Alliance".


Якщо Ви справді бажаєте підтримати українське - після прослуховування, якщо музика вам сподобалась,
придбайте ліцензійний диск.
Підтримаймо вітчизняних виконавців!


Срібний реліз (на рейтинг впливає 50% завантаженого)
 Трекер:    Зареєстрований   

Завантажити / скачати українську музику



відео для новачків



 Зареєстрований:   2013-11-24 17:32
 Розмір:   460 MB 
 Оцінка музики:   5.5/10 (Голосів: 6)
   
ssTAss 
Модератор музики


З нами з: 05.07.08
Востаннє: 10.12.16
Повідомлень: 10950

2013-11-24 17:34  
Ваш часовий пояс: GMT + 2 Години

Нова тема   Відповісти