Завантажити та скачати торренти українською


VA - Криниці любові (пісні на музику Юрія Пересунька) (2003) [FLAC] | Pop

Нові коментарі

Нова тема   Відповісти
Останній раз роздавалося tpk (2016-12-02)
Автор Повідомлення
ssTAss 
Модератор музики


З нами з: 05.07.08
Востаннє: 02.12.16
Повідомлень: 10928

2013-11-24 15:53  
VA - Криниці любові (пісні на музику Юрія Пересунька) (2003) [FLAC] | Pop

VA - Криниці любові (пісні на музику Юрія Пересунька) (2003) [FLAC] | Pop


Стиль: Pop
Країна: Україна
Видавець: Атлантик
Виконавці:
вказані до кожного треку
музика Юрія Пересунька (2-17)
слова Олександра Шарварка (3-6,8,10,11,13-17)
Василя Симоненка (2), Вадима Крищенка (7,12)
Богдана Ігоря-Антонича (9)
Пісні:
    1. Державний гімн України
    2. Назарій Яремчук - Ти і я
    3. Леонід Сандуленко - Криниці любові
    4. Павло Мрежук та Людмила Москаль - Ми вигадали світ
    5. Астрая - Жінка і вогонь
    6. Олександр Василенко - Остання надія
    7. Павло Мрежук - Руденька
    8. Алла Кудлай - І знову ти
    9. ВІА "Кобза" - На сто возах весна приїде
    10. Віктор Шпортько - Що уперше було
    11. Павло Мрежук - Я - твій таємничий оберіг
    12. Інеш - Не втікай від мене
    13. Леонід Сандуленко - Кохання все прощає
    14. Ольга Крюкова - Спогад
    15. Олекса - Травнева ніч
    16. Павло Мрежук - Я лечу
    17. Олександр Василенко - Україно моя!
log

Exact Audio Copy V1.0 beta 1 from 15. November 2010

EAC extraction logfile from 12. May 2011, 18:30

Various Artists / Криниці любові

Used drive : ASUS DRW-24B3ST Adapter: 0 ID: 0

Read mode : Secure
Utilize accurate stream : Yes
Defeat audio cache : Yes
Make use of C2 pointers : No

Read offset correction : 6
Overread into Lead-In and Lead-Out : No
Fill up missing offset samples with silence : Yes
Delete leading and trailing silent blocks : No
Null samples used in CRC calculations : Yes
Used interface : Native Win32 interface for Win NT & 2000
Gap handling : Appended to previous track

Used output format : Internal WAV Routines
Sample format : 44.100 Hz; 16 Bit; Stereo

TOC of the extracted CD

Track | Start | Length | Start sector | End sector
---------------------------------------------------------
1 | 0:00.00 | 1:31.03 | 0 | 6827
2 | 1:31.03 | 2:53.04 | 6828 | 19806
3 | 4:24.07 | 3:50.55 | 19807 | 37111
4 | 8:14.62 | 2:55.41 | 37112 | 50277
5 | 11:10.28 | 3:26.25 | 50278 | 65752
6 | 14:36.53 | 3:47.17 | 65753 | 82794
7 | 18:23.70 | 3:10.68 | 82795 | 97112
8 | 21:34.63 | 3:00.03 | 97113 | 110615
9 | 24:34.66 | 3:09.14 | 110616 | 124804
10 | 27:44.05 | 3:30.49 | 124805 | 140603
11 | 31:14.54 | 3:33.53 | 140604 | 156631
12 | 34:48.32 | 4:27.27 | 156632 | 176683
13 | 39:15.59 | 3:28.49 | 176684 | 192332
14 | 42:44.33 | 3:47.23 | 192333 | 209380
15 | 46:31.56 | 3:47.48 | 209381 | 226453
16 | 50:19.29 | 4:47.69 | 226454 | 248047
17 | 55:07.23 | 3:46.10 | 248048 | 265007

Track 1

Filename C:\Temp\Новая папка\01. - Державний Гімн України.wav

Pre-gap length 0:00:02.00

Peak level 93.8 %
Extraction speed 1.4 X
Track quality 100.0 %
Test CRC B93B486C
Copy CRC B93B486C
Track not present in AccurateRip database
Copy OK

Track 2

Filename C:\Temp\Новая папка\02. Я + Ти.wav

Pre-gap length 0:00:02.00

Peak level 95.6 %
Extraction speed 1.8 X
Track quality 100.0 %
Test CRC E70B49A4
Copy CRC E70B49A4
Track not present in AccurateRip database
Copy OK

Track 3

Filename C:\Temp\Новая папка\03. Криниця любові.wav

Pre-gap length 0:00:02.00

Peak level 93.9 %
Extraction speed 2.0 X
Track quality 100.0 %
Test CRC C8D36BAC
Copy CRC C8D36BAC
Track not present in AccurateRip database
Copy OK

Track 4

Filename C:\Temp\Новая папка\04. Ми вигадали світ.wav

Pre-gap length 0:00:02.00

Peak level 95.1 %
Extraction speed 2.1 X
Track quality 100.0 %
Test CRC 9346AEE6
Copy CRC 9346AEE6
Track not present in AccurateRip database
Copy OK

Track 5

Filename C:\Temp\Новая папка\05. Жінка і вогонь.wav

Pre-gap length 0:00:02.00

Peak level 94.4 %
Extraction speed 2.3 X
Track quality 100.0 %
Test CRC 1E1703E1
Copy CRC 1E1703E1
Track not present in AccurateRip database
Copy OK

Track 6

Filename C:\Temp\Новая папка\06. Остання надія.wav

Pre-gap length 0:00:02.00

Peak level 94.6 %
Extraction speed 2.4 X
Track quality 100.0 %
Test CRC 1BE5DF7C
Copy CRC 1BE5DF7C
Track not present in AccurateRip database
Copy OK

Track 7

Filename C:\Temp\Новая папка\07. Руденьке.wav

Pre-gap length 0:00:02.00

Peak level 91.8 %
Extraction speed 1.7 X
Track quality 99.9 %
Test CRC 696FF5D6
Copy CRC 696FF5D6
Track not present in AccurateRip database
Copy OK

Track 8

Filename C:\Temp\Новая папка\08. Останнє кохання.wav

Pre-gap length 0:00:02.00

Peak level 90.9 %
Extraction speed 2.6 X
Track quality 100.0 %
Test CRC 5D120CB3
Copy CRC 5D120CB3
Track not present in AccurateRip database
Copy OK

Track 9

Filename C:\Temp\Новая папка\09. На сто возах весна приїде.wav

Pre-gap length 0:00:02.00

Peak level 95.0 %
Extraction speed 2.7 X
Track quality 100.0 %
Test CRC DED5D8E1
Copy CRC DED5D8E1
Track not present in AccurateRip database
Copy OK

Track 10

Filename C:\Temp\Новая папка\10. Не бережі душі.wav

Pre-gap length 0:00:02.00

Peak level 93.7 %
Extraction speed 2.9 X
Track quality 100.0 %
Test CRC D0634CC9
Copy CRC D0634CC9
Track not present in AccurateRip database
Copy OK

Track 11

Filename C:\Temp\Новая папка\11. Я - твій таємний оберіг.wav

Pre-gap length 0:00:02.00

Peak level 98.4 %
Extraction speed 3.0 X
Track quality 100.0 %
Test CRC 663EB2F9
Copy CRC 663EB2F9
Track not present in AccurateRip database
Copy OK

Track 12

Filename C:\Temp\Новая папка\12. Не втікай від мене.wav

Pre-gap length 0:00:02.00

Peak level 94.3 %
Extraction speed 3.2 X
Track quality 100.0 %
Test CRC 9F0CE740
Copy CRC 9F0CE740
Track not present in AccurateRip database
Copy OK

Track 13

Filename C:\Temp\Новая папка\13. Кохання все прощає.wav

Pre-gap length 0:00:02.00

Peak level 95.8 %
Extraction speed 3.2 X
Track quality 100.0 %
Test CRC EB4FE960
Copy CRC EB4FE960
Track not present in AccurateRip database
Copy OK

Track 14

Filename C:\Temp\Новая папка\14. Спогад.wav

Pre-gap length 0:00:02.00

Peak level 93.7 %
Extraction speed 3.4 X
Track quality 100.0 %
Test CRC 7F9E90A9
Copy CRC 7F9E90A9
Track not present in AccurateRip database
Copy OK

Track 15

Filename C:\Temp\Новая папка\15. Травнева ніч.wav

Pre-gap length 0:00:01.74

Peak level 92.5 %
Extraction speed 3.5 X
Track quality 100.0 %
Test CRC D423F080
Copy CRC D423F080
Track not present in AccurateRip database
Copy OK

Track 16

Filename C:\Temp\Новая папка\16. Я лечу!.wav

Pre-gap length 0:00:02.00

Peak level 93.0 %
Extraction speed 3.7 X
Track quality 100.0 %
Test CRC 20505124
Copy CRC 20505124
Track not present in AccurateRip database
Copy OK

Track 17

Filename C:\Temp\Новая папка\17. Моя Україно.wav

Pre-gap length 0:00:02.00

Peak level 91.4 %
Extraction speed 2.6 X
Track quality 99.9 %
Test CRC 07F014CC
Copy CRC 07F014CC
Track not present in AccurateRip database
Copy OK

None of the tracks are present in the AccurateRip database

No errors occurred

End of status report

==== Log checksum 2990749C742E9FED5BCEB5D37AE9952AF13B2C1BDE208DC9DCD5CB1EF217ED4D ====
fooCDtect
fooCDtect - foobar2000 + auCDtect, baralgin.

auCDtect: CD records authenticity detector, version 0.8.2
Copyright (c) 2004 Oleg Berngardt. All rights reserved.
Copyright (c) 2004 Alexander Djourik. All rights reserved.

mode: 0

===========================================
Track: 01 - Державний гімн України
Quality: CDDA 100%
===========================================
Track: 02 - Ти і Я
Quality: CDDA 100%
===========================================
Track: 03 - Криниці любові
Quality: CDDA 100%
===========================================
Track: 04 - Ми вигадали світ
Quality: MPEG 90%
===========================================
Track: 05 - Жінка і вогонь
Quality: CDDA 99%
===========================================
Track: 06 - Остання надія
Quality: CDDA 100%
===========================================
Track: 07 - Руденька
Quality: CDDA 94%
===========================================
Track: 08 - Знову ти
Quality: CDDA 100%
===========================================
Track: 09 - На сто возах весна приїде
Quality: CDDA 100%
===========================================
Track: 10 - Що уперше було
Quality: CDDA 100%
===========================================
Track: 11 - Я - твій таємничий оберіг
Quality: MPEG 80%
===========================================
Track: 12 - Не втікай від мене
Quality: CDDA 100%
===========================================
Track: 13 - Кохання все прощає
Quality: MPEG 100%
===========================================
Track: 14 - Спогад
Quality: CDDA 99%
===========================================
Track: 15 - Травнева ніч
Quality: MPEG 79%
===========================================
Track: 16 - Я лечу
Quality: CDDA 99%
===========================================
Track: 17 - Україно моя!
Quality: CDDA 100%
===========================================
Тривалість: 00:58:53
Мова: українська, відсутня (1)
Аудіо-кодек: FLAC
Бітрейт: 999 кб/с
Джерело: інший трекер (виправлено назви, теги, зібрано в образ)
Додаткова інформація:
Пісні цього авторського альбому композитор Юрій Пересунько написав протягом одного лише року. Всі, окрім першої "Ти і Я" – їй вже 12 років, але це вже інша історія. Про загальну ідею цього видання і проекту в цілому Ви можете дізнатися з буклету. Особисто я міг би провести паралелі з авторськими альбомами Олександра Злотника "Гай, зелений гай" та "Батьківська пісня", особливо з першим із них. Це – традиційна українська естрада, у кращому розумінні цього вислову. Легка, акварельна, мелодійна, ця музика ніби створена для того, щоб підкреслювати плин часу, підкорятися йому – і все-таки залишатися, і тішити, і заспокоювати.


Якщо Ви справді бажаєте підтримати українське - після прослуховування, якщо музика вам сподобалась,
придбайте ліцензійний диск.
Підтримаймо вітчизняних виконавців!


Срібний реліз (на рейтинг впливає 50% завантаженого)
 Трекер:    Зареєстрований   

Завантажити / скачати українську музику



відео для новачків



 Зареєстрований:   2013-11-24 15:53
 Розмір:   421 MB 
 Оцінка музики:   5.5/10 (Голосів: 6)
   
Упереджений 
Частий відвідувач


З нами з: 25.09.09
Востаннє: 26.11.16
Повідомлень: 26

2014-07-19 14:33  
В моєму диску(явно іншої редакції) 8 трек зветься Остання кохання. А 10 Не бережи душі. І 2, 7, 16, 17… Скан в студію.


ssTAss 
Модератор музики


З нами з: 05.07.08
Востаннє: 02.12.16
Повідомлень: 10928

2014-07-19 20:39  
Упереджений
http://umka.com/ukr/catalogue/variety-art-2/krynytsi-ljubovi.html
там тільки нема першого треку (хоч на диску є)
де помилка - не знаю... див. джерело

Ваш часовий пояс: GMT + 2 Години

Нова тема   Відповісти