Завантажити та скачати торренти українською


TaRuta (ТаРута) - EthnoLab (2013) [FLAC] | Folk Rock

Нові коментарі

Нова тема   Відповісти
Автор Повідомлення
muhomor 
VIP


З нами з: 04.12.11
Востаннє: 29.11.16
Повідомлень: 297

2013-11-23 11:31  
TaRuta (ТаРута) - EthnoLab (2013) [FLAC] | Folk Rock

TaRuta (ТаРута) - EthnoLab (2013) [FLAC] | Folk Rock


Стиль: Folk Rock
Країна, місто: Україна, Київ
Сайти: Офіційний сайт
Видавець: Сomp Music / EMI
Виконавці:
Євген «Їжак» Романенко – спів, акустична гітара, електро-гітара
Олена Романенко – вокал
Олександра Тарасевич – вокал
Ярина Товкайло – сопілки
Мар’яна Мархель – скрипка
Олександр Атамась – бас-гітара.
Тарас Козак – барабани, перкусія, ксилофон, вібрафон
DJ Ігор Льодін – біти, скретчі, електронні ефекти
Олександр Снідалов – продюсер
Костянтин Костенко (студія "Комора") – саунд-продюсер.

Роман Коляда – рояль
Ростислав Мамадлоіков – електро-гітара
Євген Наумов – електро-гітара
Антон Самутін – труба
Максим Кательницький (Ralakasma) – скретчі
Василь Паланюк – цимбали

Пісні:
    01. Intro
    02. Армагеддон
    03. Солдат
    04. Ой, Піду Я Лугом
    05. Думи
    06. Сам П’ю, Сам Гуляю
    07. Вернися, Соколе!
    08. Домовичок
    09. Мольфари
    10. Горганський Фронт
    11. Коляда
    12. Бором-Бором
    13. Мусила
    14. Сосоночка
    15. Outro
    Audiochecker

    AUDIOCHECKER v2.0 beta (build 457) - by Dester - [email protected]
    ~~~~~~~~~~~~~~~~~~~~~~~~~~~~~~~~~~

    Started at: суббота, 23. 11. 2013. - 11:13.40
    15 files found

    01 -===- D:\hurtom.com\TaRuta - «EthnoLab» (2013) (FLAC)\01 TaRuta Intro.flac
    Extracted successfully
    Conclusion: this track is CDDA with probability 100%
    Tempfile successfully deleted.

    02 -===- D:\hurtom.com\TaRuta - «EthnoLab» (2013) (FLAC)\02 TaRuta Армагедон.flac
    Extracted successfully
    Conclusion: this track is CDDA with probability 99%
    Tempfile successfully deleted.

    03 -===- D:\hurtom.com\TaRuta - «EthnoLab» (2013) (FLAC)\03 TaRuta Солдат.flac
    Extracted successfully
    Conclusion: this track is CDDA with probability 99%
    Tempfile successfully deleted.

    04 -===- D:\hurtom.com\TaRuta - «EthnoLab» (2013) (FLAC)\04 TaRuta Ой, Піду Я Лугом.flac
    Extracted successfully
    Conclusion: this track is CDDA with probability 100%
    Tempfile successfully deleted.

    05 -===- D:\hurtom.com\TaRuta - «EthnoLab» (2013) (FLAC)\05 TaRuta Думи.flac
    Extracted successfully
    Conclusion: this track is CDDA with probability 100%
    Tempfile successfully deleted.

    06 -===- D:\hurtom.com\TaRuta - «EthnoLab» (2013) (FLAC)\06 TaRuta Сам П'ю, Сам Гуляю.flac
    Extracted successfully
    Conclusion: this track is CDDA with probability 100%
    Tempfile successfully deleted.

    07 -===- D:\hurtom.com\TaRuta - «EthnoLab» (2013) (FLAC)\07 TaRuta Вернися, Соколе!.flac
    Extracted successfully
    Conclusion: this track is CDDA with probability 100%
    Tempfile successfully deleted.

    08 -===- D:\hurtom.com\TaRuta - «EthnoLab» (2013) (FLAC)\08 TaRuta Домовичок.flac
    Extracted successfully
    Conclusion: this track is CDDA with probability 100%
    Tempfile successfully deleted.

    09 -===- D:\hurtom.com\TaRuta - «EthnoLab» (2013) (FLAC)\09 TaRuta Мольфари.flac
    Extracted successfully
    Conclusion: this track is CDDA with probability 100%
    Tempfile successfully deleted.

    10 -===- D:\hurtom.com\TaRuta - «EthnoLab» (2013) (FLAC)\10 TaRuta Горганський Фронт.flac
    Extracted successfully
    Conclusion: this track is CDDA with probability 100%
    Tempfile successfully deleted.

    11 -===- D:\hurtom.com\TaRuta - «EthnoLab» (2013) (FLAC)\11 TaRuta Коляда.flac
    Extracted successfully
    Conclusion: this track is CDDA with probability 100%
    Tempfile successfully deleted.

    12 -===- D:\hurtom.com\TaRuta - «EthnoLab» (2013) (FLAC)\12 TaRuta Бором-Бором.flac
    Extracted successfully
    Conclusion: this track is CDDA with probability 100%
    Tempfile successfully deleted.

    13 -===- D:\hurtom.com\TaRuta - «EthnoLab» (2013) (FLAC)\13 TaRuta Мусила.flac
    Extracted successfully
    Conclusion: this track is CDDA with probability 100%
    Tempfile successfully deleted.

    14 -===- D:\hurtom.com\TaRuta - «EthnoLab» (2013) (FLAC)\14 TaRuta Сосоночка.flac
    Extracted successfully
    Conclusion: this track is CDDA with probability 99%
    Tempfile successfully deleted.

    15 -===- D:\hurtom.com\TaRuta - «EthnoLab» (2013) (FLAC)\15 TaRuta Outro.flac
    Extracted successfully
    Conclusion: this track is CDDA with probability 100%
    Tempfile successfully deleted.

    Finished at: суббота, 23. 11. 2013. - 11:19.00 (operation time: 0:05.19)
    Log

    Exact Audio Copy V1.0 beta 3 from 29. August 2011

    Отчёт EAC об извлечении, выполненном 23. ноября 2013, 11:07

    TaRuta / EthnoLab

    Дисковод: ASUS DRW-2014S1T Adapter: 2 ID: 8

    Режим чтения : Достоверность
    Использование точного потока : Да
    Отключение кэша аудио : Да
    Использование указателей C2 : Нет

    Коррекция смещения при чтении : 6
    Способность читать области Lead-in и Lead-out : Нет
    Заполнение пропущенных сэмплов тишиной : Да
    Удаление блоков с тишиной в начале и конце : Нет
    При вычислениях CRC использовались нулевые сэмплы : Да
    Интерфейс : Встроенный Win32-интерфейс для Win NT/2000
    Обработка зазоров : Добавлено к предыдущему треку

    Выходной формат : Пользовательский кодировщик
    Выбранный битрейт : 128 kBit/s
    Качество : Высокий
    Добавление ID3-тега : Нет
    Утилита сжатия : C:\Program Files\Exact Audio Copy\Flac\flac.exe
    Дополнительные параметры : -V -8 -T "Genre=%genre%" -T "Artist=%artist%" -T "Title=%title%" -T "Album=%albumtitle%" -T "Date=%year%" -T "Tracknumber=%tracknr%" -T "Comment=%comment%" %source%

    TOC извлечённого CD

    Трек | Старт | Длительность | Начальный сектор | Конечный сектор
    ---------------------------------------------------------------------
    1 | 0:00.00 | 1:30.45 | 0 | 6794
    2 | 1:30.45 | 4:01.44 | 6795 | 24913
    3 | 5:32.14 | 4:12.32 | 24914 | 43845
    4 | 9:44.46 | 4:01.17 | 43846 | 61937
    5 | 13:45.63 | 4:59.52 | 61938 | 84414
    6 | 18:45.40 | 3:27.16 | 84415 | 99955
    7 | 22:12.56 | 3:02.54 | 99956 | 113659
    8 | 25:15.35 | 4:17.68 | 113660 | 133002
    9 | 29:33.28 | 0:34.45 | 133003 | 135597
    10 | 30:07.73 | 3:40.13 | 135598 | 152110
    11 | 33:48.11 | 3:33.51 | 152111 | 168136
    12 | 37:21.62 | 3:13.73 | 168137 | 182684
    13 | 40:35.60 | 2:43.13 | 182685 | 194922
    14 | 43:18.73 | 3:27.52 | 194923 | 210499
    15 | 46:46.50 | 1:43.31 | 210500 | 218255

    Трек 1

    Имя файла D:\Documents and Settings\user\Рабочий стол\«»—0–\01 TaRuta Intro.wav

    Длина предзазора 0:00:02.00

    Пиковый уровень 72.7 %
    Скорость извлечения 3.0 X
    Качество трека 99.8 %
    CRC теста 35DA15AC
    CRC копии 35DA15AC
    Копирование... OK

    Трек 2

    Имя файла D:\Documents and Settings\user\Рабочий стол\«»—0–\02 TaRuta Армагедон.wav

    Пиковый уровень 98.8 %
    Скорость извлечения 5.3 X
    Качество трека 100.0 %
    CRC теста CF306BDC
    CRC копии CF306BDC
    Копирование... OK

    Трек 3

    Имя файла D:\Documents and Settings\user\Рабочий стол\«»—0–\03 TaRuta Солдат.wav

    Длина предзазора 0:00:02.00

    Пиковый уровень 98.8 %
    Скорость извлечения 5.8 X
    Качество трека 100.0 %
    CRC теста DE396240
    CRC копии DE396240
    Копирование... OK

    Трек 4

    Имя файла D:\Documents and Settings\user\Рабочий стол\«»—0–\04 TaRuta Ой, Піду Я Лугом.wav

    Длина предзазора 0:00:02.00

    Пиковый уровень 98.8 %
    Скорость извлечения 6.3 X
    Качество трека 100.0 %
    CRC теста 1D381F7F
    CRC копии 1D381F7F
    Копирование... OK

    Трек 5

    Имя файла D:\Documents and Settings\user\Рабочий стол\«»—0–\05 TaRuta Думи.wav

    Пиковый уровень 98.8 %
    Скорость извлечения 6.7 X
    Качество трека 100.0 %
    CRC теста 68A7C1EE
    CRC копии 68A7C1EE
    Копирование... OK

    Трек 6

    Имя файла D:\Documents and Settings\user\Рабочий стол\«»—0–\06 TaRuta Сам П'ю, Сам Гуляю.wav

    Длина предзазора 0:00:02.00

    Пиковый уровень 98.8 %
    Скорость извлечения 7.1 X
    Качество трека 100.0 %
    CRC теста 73F54A47
    CRC копии 73F54A47
    Копирование... OK

    Трек 7

    Имя файла D:\Documents and Settings\user\Рабочий стол\«»—0–\07 TaRuta Вернися, Соколе!.wav

    Длина предзазора 0:00:02.00

    Пиковый уровень 98.8 %
    Скорость извлечения 7.2 X
    Качество трека 100.0 %
    CRC теста A2FAFBBC
    CRC копии A2FAFBBC
    Копирование... OK

    Трек 8

    Имя файла D:\Documents and Settings\user\Рабочий стол\«»—0–\08 TaRuta Домовичок.wav

    Длина предзазора 0:00:02.00

    Пиковый уровень 98.8 %
    Скорость извлечения 8.0 X
    Качество трека 100.0 %
    CRC теста 694CD052
    CRC копии 694CD052
    Копирование... OK

    Трек 9

    Имя файла D:\Documents and Settings\user\Рабочий стол\«»—0–\09 TaRuta Мольфари.wav

    Длина предзазора 0:00:02.00

    Пиковый уровень 55.2 %
    Скорость извлечения 4.3 X
    Качество трека 100.0 %
    CRC теста 165FC517
    CRC копии 165FC517
    Копирование... OK

    Трек 10

    Имя файла D:\Documents and Settings\user\Рабочий стол\«»—0–\10 TaRuta Горганський Фронт.wav

    Пиковый уровень 98.8 %
    Скорость извлечения 8.1 X
    Качество трека 100.0 %
    CRC теста 89341BB6
    CRC копии 89341BB6
    Копирование... OK

    Трек 11

    Имя файла D:\Documents and Settings\user\Рабочий стол\«»—0–\11 TaRuta Коляда.wav

    Длина предзазора 0:00:02.00

    Пиковый уровень 98.8 %
    Скорость извлечения 8.4 X
    Качество трека 100.0 %
    CRC теста 7033D15D
    CRC копии 7033D15D
    Копирование... OK

    Трек 12

    Имя файла D:\Documents and Settings\user\Рабочий стол\«»—0–\12 TaRuta Бором-Бором.wav

    Длина предзазора 0:00:02.00

    Пиковый уровень 98.8 %
    Скорость извлечения 8.5 X
    Качество трека 100.0 %
    CRC теста 9CB93914
    CRC копии 9CB93914
    Копирование... OK

    Трек 13

    Имя файла D:\Documents and Settings\user\Рабочий стол\«»—0–\13 TaRuta Мусила.wav

    Длина предзазора 0:00:02.00

    Пиковый уровень 98.8 %
    Скорость извлечения 8.4 X
    Качество трека 100.0 %
    CRC теста C4A8B5F1
    CRC копии C4A8B5F1
    Копирование... OK

    Трек 14

    Имя файла D:\Documents and Settings\user\Рабочий стол\«»—0–\14 TaRuta Сосоночка.wav

    Длина предзазора 0:00:02.00

    Пиковый уровень 98.8 %
    Скорость извлечения 9.0 X
    Качество трека 100.0 %
    CRC теста A9ACAC85
    CRC копии A9ACAC85
    Копирование... OK

    Трек 15

    Имя файла D:\Documents and Settings\user\Рабочий стол\«»—0–\15 TaRuta Outro.wav

    Длина предзазора 0:00:02.00

    Пиковый уровень 72.6 %
    Скорость извлечения 7.9 X
    Качество трека 100.0 %
    CRC теста 6FF39B2D
    CRC копии 6FF39B2D
    Копирование... OK

    Ошибок не произошло

    Конец отчёта

    ==== Контрольная сумма отчёта D683F1864F7309672DC3C585A20C0C89DE170467E6D09C8F6E6BA3801763D591 ====

Тривалість: 00:48:31
Мова: українська
Аудіо-кодек: FLAC
Бітрейт: 944 кб/с
Джерело: ріп зроблено з ліцензійного компакт-диска із власної фонотеки
Додаткова інформація:
За словами музикантів, дворічна праця – «це результати захопливого експерименту зі стилями. Суміш року, диско, ф’южн та народних мелодій, етно-панку й етно-дабу, класичного українського жіночого багатоголосся, акустичної гітари, сопілки та ксилофону. Одного дня гурт так захопився експериментами, що у ньому з’явилися DJ і бітмейкер Ігор Льодін, піаніст-віртуоз Роман Коляда, а саундпродюсером платівки став Костянтин Костенко зі студії «Комора»». А що з цього вийшло – слухайте і робіть висновки!


Якщо Ви справді бажаєте підтримати українське - після прослуховування, якщо музика вам сподобалась, придбайте ліцензійний диск. Підтримаймо вітчизняних виконавців!


Срібний реліз (на рейтинг впливає 50% завантаженого)
 Трекер:    Зареєстрований   

Завантажити / скачати українську музику



відео для новачків



 Зареєстрований:   2013-11-23 11:31
 Розмір:   328 MB 
 Оцінка музики:   10/10 (Голосів: 10)
   
Ваш часовий пояс: GMT + 2 Години

Нова тема   Відповісти