Завантажити та скачати торренти українською


Скажений Макс. Під Куполом Грому / Mad Max Beyond Thunderdome (1985) 1080p Ukr/Eng | Sub Eng

Нові коментарі

Нова тема   Відповісти
Автор Повідомлення
Anonymous 







2013-11-22 17:27  
Скажений Макс. Під Куполом Грому / Mad Max Beyond Thunderdome (1985) 1080p Ukr/Eng | Sub Eng



Жанр: бойовик, пригодницький, фантастика, триллер
Країна: Австралія, США



Кінокомпанія: Kennedy Miller Productions
Режисер: Джордж Міллер / George Miller, Джордж Огілве / George Ogilvie
Актори: Мел Ґібсон / Mel Gibson, Брюс Спенс / Bruce Spence, Адам Кокберн / Adam Cockburn, Тіна Тьорнер / Tina Turner, Анджелло Россітто / Angelo Rossitto, Френк Трінг / Frank Thring, Хелен Бедей / Helen Buday та інші.

Сюжет:
У місті Бартертауні править підступна володарка Ентіті. Для зміцнення своєї влади вона намагається використовувати Макса, неперевершеного майстра дорожніх сутичок. Але тепер заворожливу низку автомобільних розбірок під жорстоким сонцем починають змінювати неймовірні рукопашні бої.

А закони арени "Купол грому" надзвичайно жорстокі: входять двоє, залишається тільки один... А потім, подібно Мойсею, Макс повинен вивести з пустелі... банди волоцюг-дітей, щоб вони поклали початок більш гуманній цивілізації, ніж та, що виродилася після ядерного апокаліпсиса третьої світової війни. І на зміну безглуздій помсті приходить особиста відповідальність зрілої людини.



Рейтинг MPAA: R - особам до 17 років обов'язкова присутність батьків або дорослого опікуна
Вікова категорія: 16+


Тривалість: 01:46:58
Якість: 1080p
Відео:
кодек:
розмір кадру: 1908 х 796
бітрейт: 9365 кб/с

Аудіо # 1:
мова: українська - Студія "ТВ+"
переклад: багатоголосий закадровий
ролі озвучили: Анатолій Зіновенко (Мел Ґібсон/Скажений Макс Рокатанський), Олесь Гімбаржевський, Людмила Ардельян і ще один жіночий голос
кодек: 5.1
бітрейт: 384 кб/с

Аудіо # 2:
мова: англійська
переклад: оригінал
кодек: 5.1
бітрейт: 1536 кб/с

Субтитри:
мова: англійська
тип: програмні (м'які)
формат: *.srt

Збережено оригінальні розділи, як на Blu-ray.
MediaInfo
General
Unique ID : 251797384329406433055388889573663689822 (0xBD6E69888CD08B7DA43BDA9DC02FCC5E)
Complete name : Mad Max Beyond Thunderdome (1985) [Ukr,Eng sub.Eng] 1080p [Hurtom].mkv
Format : Matroska
Format version : Version 4 / Version 2
File size : 8.41 GiB
Duration : 1h 46mn
Overall bit rate : 11.3 Mbps
Movie name : Скажений Макс 3: Під куполом грому / Mad Max Beyond Thunderdome (1985) 1080p [Hurtom]
Encoded date : UTC 2013-11-22 13:15:28
Writing application : mkvmerge v6.5.0 ('Isn't she lovely') built on Oct 20 2013 12:50:05
Writing library : libebml v1.3.0 + libmatroska v1.4.1

Video
ID : 1
Format : AVC
Format/Info : Advanced Video Codec
Format profile : [email protected]
Format settings, CABAC : Yes
Format settings, ReFrames : 5 frames
Codec ID : V_MPEG4/ISO/AVC
Duration : 1h 46mn
Bit rate : 9 365 Kbps
Width : 1 908 pixels
Height : 796 pixels
Display aspect ratio : 2.40:1
Frame rate mode : Constant
Frame rate : 23.976 fps
Color space : YUV
Chroma subsampling : 4:2:0
Bit depth : 8 bits
Scan type : Progressive
Bits/(Pixel*Frame) : 0.257
Stream size : 6.83 GiB (81%)
Title : Скажений Макс 3: Під куполом грому / Mad Max Beyond Thunderdome / Безумный Макс 3: Под куполом грома (1985) 1080p [K.A.F.]
Writing library : core 133 r2334 a3ac64b
Encoding settings : cabac=1 / ref=5 / deblock=1:0:0 / analyse=0x3:0x133 / me=tesa / subme=11 / psy=1 / psy_rd=1.00:0.10 / mixed_ref=1 / me_range=32 / chroma_me=1 / trellis=2 / 8x8dct=1 / cqm=0 / deadzone=21,11 / fast_pskip=0 / chroma_qp_offset=-3 / threads=12 / lookahead_threads=1 / sliced_threads=0 / nr=0 / decimate=0 / interlaced=0 / bluray_compat=0 / constrained_intra=0 / bframes=3 / b_pyramid=2 / b_adapt=2 / b_bias=0 / direct=3 / weightb=1 / open_gop=0 / weightp=2 / keyint=240 / keyint_min=23 / scenecut=40 / intra_refresh=0 / rc_lookahead=60 / rc=2pass / mbtree=1 / bitrate=9365 / ratetol=1.0 / qcomp=0.60 / qpmin=0 / qpmax=69 / qpstep=4 / cplxblur=20.0 / qblur=0.5 / ip_ratio=1.40 / aq=1:1.00
Language : English
Default : Yes
Forced : No

Audio #1
ID : 2
Format : AC-3
Format/Info : Audio Coding 3
Mode extension : CM (complete main)
Format settings, Endianness : Big
Codec ID : A_AC3
Duration : 1h 46mn
Bit rate mode : Constant
Bit rate : 384 Kbps
Channel count : 6 channels
Channel positions : Front: L C R, Side: L R, LFE
Sampling rate : 48.0 KHz
Bit depth : 16 bits
Compression mode : Lossy
Stream size : 294 MiB (3%)
Title : MVO [ICTV,TV+] 5.1 384 kbps [Hurtom-robotron005]
Language : Ukrainian
Default : Yes
Forced : No

Audio #2
ID : 3
Format :
Format/Info : Digital Theater Systems
Mode : 16
Format settings, Endianness : Big
Codec ID : A_DTS
Duration : 1h 46mn
Bit rate mode : Constant
Bit rate : 1 509 Kbps
Channel count : 6 channels
Channel positions : Front: L C R, Side: L R, LFE
Sampling rate : 48.0 KHz
Bit depth : 16 bits
Compression mode : Lossy
Stream size : 1.13 GiB (13%)
Title : Original 5.1 1536 kbps
Language : English
Default : No
Forced : No

Text
ID : 4
Format : UTF-8
Codec ID : S_TEXT/UTF8
Codec ID/Info : UTF-8 Plain Text
Title : Eng full
Language : English
Default : No
Forced : No

Menu
00:00:00.000 : en:
00:09:55.761 : en:
00:20:06.413 : en:
00:30:31.663 : en:
00:40:04.527 : en:
00:50:45.042 : en:
01:02:00.717 : en:
01:11:21.277 : en:
01:20:12.224 : en:
01:30:58.035 : en:
01:42:03.617 : en:




Джерела та подяки:
ріп відео - K.A.F. (рутор); українська доріжка - robotron005 - зведення, olgaya - запис з ТБ; український постер - grytzz (всі - Гуртом).

Особиста оцінка: 8 - мені сподобалося

Перша частина трилогії у 1080p:Скажений Макс / Mad Max (1979) 1080p Ukr/Eng | Sub Eng
Друга частина трилогії у 1080p: Скажений Макс 2: Воїн Дороги / Mad Max 2 / The Road Warrior [Unrated] (1981) 1080p Ukr/Eng | Sub Eng


ЗАЛИШАЙТЕСЬ ЯКОМОГА ДОВШЕ НА РОЗДАЧІ!

СКАЧАВ САМ - ДАЙ СКАЧАТИ ІНШИМ


Срібний реліз (на рейтинг впливає 50% завантаженого)
 Трекер:    Зареєстрований   

Завантажити / скачати фільм українською



відео для новачків



 Зареєстрований:   2013-11-22 17:27
 Розмір:   8.41 GB 
 Оцінка фільму:   6.3/10 (Голосів: 25)
   
Ваш часовий пояс: GMT + 2 Години

Нова тема   Відповісти