Завантажити та скачати торренти українською


Модільяні / Modigliani (2004) 720p Ukr/Eng | Sub Eng

Нові коментарі

Нова тема   Відповісти
Автор Повідомлення
Anonymous 







2013-11-22 09:07  
Модільяні / Modigliani (2004) 720p Ukr/Eng | Sub Eng



Альтернативний постер



Жанр: біографічний, драма
Країна: США, Франція, Німеччина, Італія, Румунія, Велика Британія



Кінокомпанія: Lucky 7 Productions LLC, Media Pro Pictures, Alicéléo
Режисер: Мік Девіс / Mick Davis
Актори: Енді Ґарсія / Andy Garcia, Ельза Зільберштайн / Elsa Zylberstein, Омід Джалілі / Omid Djalili, Іпполіт Жирардо / Hippolyte Girardot, Ева Герцігова / Eva Herzigova, Удо Кір / Udo Kier, Сюзі Емі / Susie Amy, Пітер Капальді / Peter Capaldi, Луїс Гілієр / Louis Hilyer, Стівен Рімкус / Stevan Rimkus та інші

Сюжет:
Амадео Модільяні молодий і задерикуватий. Намагаючись добитися слави, він шокує оточуючих своїми п'яними витівками і страждає від кохання.
Вдень він воює з Пікассо, а у вільний від фортелів час малює. Та так, що в його таланті ніхто не сміє засумніватися...



Рейтинг MPAA: R - особам до 17 років обов'язкова присутність батьків або дорослого опікуна

Тривалість: 02:07:14
Якість: 720p
Відео:
кодек:
розмір кадру: 1280 х 720
бітрейт: 6618 кб/с

Аудіо # 1:
мова: українська
переклад: багатоголосий закадровий
ролі озвучили: Владислав Пупков, Юрій Ребрик, Тетяна Зіновенко? та ще один жіночий голос
кодек: 2.0
бітрейт: 192 кб/с

Аудіо # 2:
мова: англійська
переклад: оригінал
кодек: 2.0
бітрейт: 192 кб/с

Субтитри:
мова: англійська
тип: програмні (м'які)
формат: *.srt
MediaInfo
Код:
General
Unique ID                                : 205579639876007773587862587236247505191 (0x9AA932CCEBEAF1CBB710B8FC7EBD8927)
Complete name                            : Modigliani (2004) [Ukr,Eng sub.Eng] 720p [Hurtom & HQ-Video].mkv
Format                                   : Matroska
Format version                           : Version 4 / Version 2
File size                                : 6.35 GiB
Duration                                 : 2h 7mn
Overall bit rate mode                    : Variable
Overall bit rate                         : 7 145 Kbps
Movie name                               : Модільяні / Modigliani (2004) 720p [Hurtom & HQ-ViDEO]
Encoded date                             : UTC 2013-11-22 18:13:08
Writing application                      : mkvmerge v6.5.0 ('Isn't she lovely') built on Oct 20 2013 12:50:05
Writing library                          : libebml v1.3.0 + libmatroska v1.4.1

Video
ID                                       : 1
Format                                   : AVC
Format/Info                              : Advanced Video Codec
Format profile                           : [email protected]
Format settings, CABAC                   : Yes
Format settings, ReFrames                : 6 frames
Format settings, GOP                     : M=4, N=50
Codec ID                                 : V_MPEG4/ISO/AVC
Duration                                 : 2h 7mn
Bit rate mode                            : Variable
Bit rate                                 : 6 618 Kbps
Maximum bit rate                         : 6 745 Kbps
Width                                    : 1 280 pixels
Height                                   : 720 pixels
Display aspect ratio                     : 16:9
Frame rate mode                          : Constant
Frame rate                               : 23.976 fps
Color space                              : YUV
Chroma subsampling                       : 4:2:0
Bit depth                                : 8 bits
Scan type                                : Progressive
Bits/(Pixel*Frame)                       : 0.300
Stream size                              : 5.88 GiB (93%)
Title                                    : Модільяні / Modigliani / Модильяни (2004) 720p [HQ-ViDEO-GYN]
Language                                 : English
Default                                  : Yes
Forced                                   : No

Audio #1
ID                                       : 2
Format                                   : AC-3
Format/Info                              : Audio Coding 3
Mode extension                           : CM (complete main)
Format settings, Endianness              : Big
Codec ID                                 : A_AC3
Duration                                 : 2h 7mn
Bit rate mode                            : Constant
Bit rate                                 : 192 Kbps
Channel count                            : 2 channels
Channel positions                        : Front: L R
Sampling rate                            : 48.0 KHz
Bit depth                                : 16 bits
Compression mode                         : Lossy
Stream size                              : 175 MiB (3%)
Title                                    : MVO [TRK Ukraina] 2.0 192 kbps [Hurtom-karvai0]
Language                                 : Ukrainian
Default                                  : Yes
Forced                                   : No

Audio #2
ID                                       : 3
Format                                   : AC-3
Format/Info                              : Audio Coding 3
Format profile                           : Dolby Digital
Mode extension                           : CM (complete main)
Format settings, Endianness              : Big
Codec ID                                 : A_AC3
Duration                                 : 2h 7mn
Bit rate mode                            : Constant
Bit rate                                 : 192 Kbps
Channel count                            : 2 channels
Channel positions                        : Front: L R
Sampling rate                            : 48.0 KHz
Bit depth                                : 16 bits
Compression mode                         : Lossy
Stream size                              : 175 MiB (3%)
Title                                    : Original
Language                                 : English
Default                                  : No
Forced                                   : No

Text
ID                                       : 4
Format                                   : UTF-8
Codec ID                                 : S_TEXT/UTF8
Codec ID/Info                            : UTF-8 Plain Text
Language                                 : English
Default                                  : No
Forced                                   : No




Джерела та подяки: &
ріп відео, оригінальні звук та субтитри - GYN (HQ-ViDEO); українська доріжка - karvai0 (Гуртом).


ЗАЛИШАЙТЕСЬ ЯКОМОГА ДОВШЕ НА РОЗДАЧІ!

СКАЧАВ САМ - ДАЙ СКАЧАТИ ІНШИМ


Срібний реліз (на рейтинг впливає 50% завантаженого)
 Трекер:    Зареєстрований   

Завантажити / скачати фільм українською



відео для новачків



 Зареєстрований:   2013-11-22 20:41
 Розмір:   6.35 GB 
 Оцінка фільму:   4.7/10 (Голосів: 17)
   
Інші релізи
   Модільяні / Modigliani (2004) Ukr/Eng | Sub Eng karvai0  6 / 0   2.18 GB   2013-11-21 20:26 
Makovej 
Новенький


З нами з: 08.12.10
Востаннє: 05.12.16
Повідомлень: 4

2013-11-22 09:14  
Це просто неперевершене кіно!!!!!!!!!! Я протягом одного дня подивився його двічі! Просто немає слів описати цю прекрасну роботу!
Virake 
Localize Team
Localize Team


З нами з: 07.07.09
Востаннє: 08.12.16
Повідомлень: 4064

2013-11-23 18:31  
ха-ха! тепер знатиму, як правильно треба випрошувати HD)) релізеру подяка.
Deiv 
Частий відвідувач


З нами з: 15.07.16
Востаннє: 08.12.16
Повідомлень: 28

2016-08-23 17:07  
Неодмінно в колекцію!!!
Ваш часовий пояс: GMT + 2 Години

Нова тема   Відповісти