Завантажити та скачати торренти українською


Kitka - Nectar (1999) [FLAC] | Folk

Нові коментарі

Нова тема   Відповісти
Останній раз роздавалося ssTAss (2016-11-27)
Автор Повідомлення
ssTAss 
Модератор музики


З нами з: 05.07.08
Востаннє: 07.12.16
Повідомлень: 10947

2013-11-21 22:53  
Kitka - Nectar (1999) [FLAC] | Folk

Kitka - Nectar (1999) [FLAC] | Folk


Стиль: Folk
Країна, місто: США, Окленд
Сайти: Офіційний сайт
Видавець: Diaphonica
Пісні:
    1. Dumaj, Zlato (Bulgaria)
    2. Vdol Po Rechenke (Russia)
    3. Na Gore, Na Gorinke (Russia)
    4. Malo Selo (Bulgaria)
    5. Što Si, Goro, Povjahnala? (Bulgaria)
    6. Melai Dojna (Bulgaria)
    7. Lulay, Lulay (Ukraine)
    8. Tsintsharo (Georgia)
    9. Ah Razpasledni Raz Devchonechka (Russia)
    10. Stojnole, Stokole (Macedonia)
    11. Hopp Ide Tisztán (Hungary)
    12. Včera Se Ženi Mlad Stojan/Godini, Godini (Bulgaria)
    13. Što Mi E Milo (Macedonia)
    14. Tŭhkala Li Si, Momina Male (Bulgaria)
    15. Szerelem, Szerelem (Hungary)
    16. Devojko, Mŭri, Hubava (Bulgaria)
    17. Ogrejala Mesečina (Macedonia)
    18. Miskolc Felöl Hidegen Fuj A Szél (Hungary)

Тривалість: 00:57:33
Мова: вказана до кожного треку
Аудіо-кодек: FLAC
Бітрейт: 689 кб/с
Джерело: інший трекер
Додаткова інформація:
log
Exact Audio Copy V1.0 beta 2 from 29. April 2011

EAC extraction logfile from 10. July 2011, 15:46

Kitka / Nectar

Used drive : PLDS DVD+-RW DS-8A4S Adapter: 0 ID: 1

Read mode : Secure
Utilize accurate stream : Yes
Defeat audio cache : Yes
Make use of C2 pointers : No

Read offset correction : 6
Overread into Lead-In and Lead-Out : No
Fill up missing offset samples with silence : Yes
Delete leading and trailing silent blocks : No
Null samples used in CRC calculations : Yes
Used interface : Native Win32 interface for Win NT & 2000

Used output format : User Defined Encoder
Selected bitrate : 768 kBit/s
Quality : High
Add ID3 tag : No
Command line compressor : C:\Program Files\Exact Audio Copy\FLAC\FLAC.EXE
Additional command line options : -6 -V -T "ARTIST=%artist%" -T "TITLE=%title%" -T "ALBUM=%albumtitle%" -T "DATE=%year%" -T "TRACKNUMBER=%tracknr%" -T "GENRE=%genre%" -T "COMMENT=%comment%" -T "BAND=%albuminterpret%" -T "COMPOSER=%composer%" %haslyrics%--ta

TOC of the extracted CD

Track | Start | Length | Start sector | End sector
---------------------------------------------------------
1 | 0:00.00 | 2:54.02 | 0 | 13051
2 | 2:54.02 | 2:45.15 | 13052 | 25441
3 | 5:39.17 | 3:03.00 | 25442 | 39166
4 | 8:42.17 | 2:01.73 | 39167 | 48314
5 | 10:44.15 | 3:47.15 | 48315 | 65354
6 | 14:31.30 | 2:38.05 | 65355 | 77209
7 | 17:09.35 | 3:33.30 | 77210 | 93214
8 | 20:42.65 | 4:41.60 | 93215 | 114349
9 | 25:24.50 | 1:28.10 | 114350 | 120959
10 | 26:52.60 | 2:01.25 | 120960 | 130059
11 | 28:54.10 | 3:40.65 | 130060 | 146624
12 | 32:35.00 | 6:01.07 | 146625 | 173706
13 | 38:36.07 | 5:48.45 | 173707 | 199851
14 | 44:24.52 | 2:02.15 | 199852 | 209016
15 | 46:26.67 | 1:44.18 | 209017 | 216834
16 | 48:11.10 | 3:18.57 | 216835 | 231741
17 | 51:29.67 | 2:31.68 | 231742 | 243134
18 | 54:01.60 | 3:31.00 | 243135 | 258959

Range status and errors

Selected range

Filename E:\Kitka - Nectar.wav

Peak level 96.5 %
Extraction speed 4.4 X
Range quality 99.9 %
Test CRC 43F4330A
Copy CRC 43F4330A
Copy OK

No errors occurred

AccurateRip summary

Track 1 accurately ripped (confidence 3) [9B828DB6] (AR v1)
Track 2 accurately ripped (confidence 3) [6D48787E] (AR v1)
Track 3 accurately ripped (confidence 3) [B92C99D6] (AR v1)
Track 4 accurately ripped (confidence 3) [D5107491] (AR v1)
Track 5 accurately ripped (confidence 3) [82BD9B37] (AR v1)
Track 6 accurately ripped (confidence 3) [815F4182] (AR v1)
Track 7 accurately ripped (confidence 3) [DD28FFA9] (AR v1)
Track 8 accurately ripped (confidence 3) [2DDF9271] (AR v1)
Track 9 accurately ripped (confidence 3) [48996BF1] (AR v1)
Track 10 accurately ripped (confidence 3) [302E727B] (AR v1)
Track 11 accurately ripped (confidence 3) [9F5F4560] (AR v1)
Track 12 accurately ripped (confidence 3) [217E8BB8] (AR v1)
Track 13 accurately ripped (confidence 3) [A32FAC8D] (AR v1)
Track 14 accurately ripped (confidence 3) [014929D9] (AR v1)
Track 15 accurately ripped (confidence 3) [81FD6134] (AR v1)
Track 16 accurately ripped (confidence 3) [B1331628] (AR v1)
Track 17 accurately ripped (confidence 3) [B8DE916C] (AR v1)
Track 18 accurately ripped (confidence 3) [9099F14A] (AR v1)

All tracks accurately ripped

End of status report

==== Log checksum 67D85AF636780B19591925F8A4004F59CE31A967E77AF055BB3DDC5031690CCB ====
audiochecker
-----------------------------------------------------------

Started at: Sunday, 10. 07. 2011. - 15:48.33
1 file found

1 -===- E:\Kitka - Nectar.flac
Extracted successfully
Conclusion: this track is CDDA with probability 100%
Tempfile successfully deleted.

Finished at: Sunday, 10. 07. 2011. - 15:54.16 (operation time: 0:05.42)


Якщо Ви справді бажаєте підтримати українське - після прослуховування, якщо музика вам сподобалась,
придбайте ліцензійний диск.
Підтримаймо вітчизняних виконавців!


Срібний реліз (на рейтинг впливає 50% завантаженого)
 Трекер:    Зареєстрований   

Завантажити / скачати українську музику



відео для новачків



 Зареєстрований:   2013-11-21 22:53
 Розмір:   284 MB 
 Оцінка музики:   3.3/10 (Голосів: 4)
   
Ваш часовий пояс: GMT + 2 Години

Нова тема   Відповісти