Завантажити та скачати торренти українською


Метод Хітча / Правила зйому: Метод Хітча / Гітч / Hitch (2005) 1080p 3xUkr/Eng | Sub Eng

Нові коментарі

Нова тема   Відповісти
Автор Повідомлення
Anonymous 







2013-11-19 13:06  
Метод Хітча / Правила зйому: Метод Хітча / Гітч / Hitch (2005) 1080p 3xUkr/Eng | Sub Eng



Жанр: мелодрама, комедія
Країна: США



Кінокомпанія: Columbia Pictures Corporation, Overbrook Entertainment
Режисер: Енді Теннант / Andy Tennant
Актори: Вілл Сміт / Will Smith, Єва Мендес / Eva Mendes, Кевін Джеймс / Kevin James, Амбер Валетта / Amber Valletta, Джулі Енн Емері / Julie Ann Emery, Адам Аркін / Adam Arkin, Робін Лі / Robinne Lee, Нейтан Лі Ґрегем / Nathan Lee Graham, Майкл Рапапорт / Michael Rapaport, Джеффрі Донован / Jeffrey Donovan та інші

Сюжет:
Алекс «Хітч» Хітченс (Вілл Сміт) - легендарний н'ю-йоркський «доктор-сват». Він допоміг безліч чоловікам домогтися взаємності від жінок. Хітч не безкорисливий, він отримує за свою роботу гонорар, але завбачливо зберігає в таємниці свій спосіб заробітку на життя.

Новий клієнт Хітча - Альберт, боязкий бухгалтер, який до нестями закоханий у гламурну зірку Аллегру Коул. Для Хітча цей випадок повинен стати вершиною його кар'єри. Однак, працюючи над цією справою, він раптом зустрічає гідного супротивника в особі ефектної та проникливої ​​Сари Мелас (Єва Мендес), журналістки, ведучої колонки світських пліток, і стежить за кожним кроком Аллегри.

Професійний холостяк Хітч раптово виявляє, що по вуха закоханий у Сару, яка, у свою чергу, близька до сенсаційного відкриття : вона тільки що вийшла на слід таємничого манхеттенського "доктора - свата"...



Рейтинг MPAA: PG-13 - дітям до 13 років перегляд не бажаний
Вікова категорія: 12+


Тривалість: 01:58:16
Якість: 1080p
Відео:
кодек:
розмір кадру: 1920 x 800
бітрейт: 8727 кб/с

Аудіо # 1:
мова: українська
переклад: професійний дубльований
кодек: 2.0
бітрейт: 192 кб/с
Інформація про дубляж
Аудіо # 2:
мова: українська - Так Треба Продакшн
переклад: багатоголосий закадровий
кодек: 2.0
бітрейт: 192 кб/с
Інформація про озвучення
Ролі озвучили: Дмитро Гаврилов, Анатолій Пашнін, Катерина Буцька та ще один жіночий голос.

Фільм перекладено і озвучено на студії Так Треба Продакшн на замовлення ICTV
Аудіо # 3:
мова: українська - студія "Мова"
переклад: багатоголосий закадровий
кодек: 2.0
бітрейт: 192 кб/с
Інформація про озвучення
Ролі озвучили: Михайло Кришталь, Микола Говор, ще один чоловічий і один чи два жіночих голоси.

Фільм перекладено і озвучено на студії Мова на замовлення ТРК Україна
Аудіо # 4:
мова: англійська
переклад: оригінал
кодек: 5.1
бітрейт: 448 кб/с

Субтитри:
мова: англійська
тип: програмні (м'які)
формат: *.srt

Збережено оригінальні розділи, як на Blu-ray.
MediaInfo та
[info]: frame I:1428 Avg QP:19.47 size:149199
[info]: frame P:51653 Avg QP:21.85 size: 67073
[info]: frame B:117055 Avg QP:23.98 size: 34686
[info]: consecutive B-frames: 1.8% 5.5% 41.9% 50.8%
Код:
General
Unique ID                                : 178443346926725019600895264781093895895 (0x863EF042FF1CD4828121A4A3B644FED7)
Complete name                            : Hitch (2005) [3xUkr,Eng sub.Eng] 1080p [Hurtom].mkv
Format                                   : Matroska
Format version                           : Version 4 / Version 2
File size                                : 8.05 GiB
Duration                                 : 1h 58mn
Overall bit rate mode                    : Variable
Overall bit rate                         : 9 750 Kbps
Movie name                               : Метод Хітча / Правила зйому: Метод Хітча / Гітч / Hitch (2005) 1080p [Hurtom]
Encoded date                             : UTC 2013-11-19 10:01:42
Writing application                      : mkvmerge v6.5.0 ('Isn't she lovely') built on Oct 20 2013 12:50:05
Writing library                          : libebml v1.3.0 + libmatroska v1.4.1

Video
ID                                       : 1
Format                                   : AVC
Format/Info                              : Advanced Video Codec
Format profile                           : [email protected]
Format settings, CABAC                   : Yes
Format settings, ReFrames                : 4 frames
Codec ID                                 : V_MPEG4/ISO/AVC
Duration                                 : 1h 58mn
Bit rate mode                            : Variable
Bit rate                                 : 8 727 Kbps
Maximum bit rate                         : 50.0 Mbps
Width                                    : 1 920 pixels
Height                                   : 800 pixels
Display aspect ratio                     : 2.40:1
Frame rate mode                          : Constant
Frame rate                               : 23.976 fps
Color space                              : YUV
Chroma subsampling                       : 4:2:0
Bit depth                                : 8 bits
Scan type                                : Progressive
Bits/(Pixel*Frame)                       : 0.237
Stream size                              : 7.05 GiB (88%)
Title                                    : Метод Хітча / Правила зйому: Метод Хітча / Гітч / Hitch / Правила съема: Метод Хитча (2005) 1080p [Freesland-delia]
Writing library                          : core 132 r2310 76a5c3a
Encoding settings                        : cabac=1 / ref=5 / deblock=1:-3:-3 / analyse=0x3:0x113 / me=umh / subme=11 / psy=1 / psy_rd=1.00:0.00 / mixed_ref=1 / me_range=48 / chroma_me=1 / trellis=2 / 8x8dct=1 / cqm=0 / deadzone=21,11 / fast_pskip=0 / chroma_qp_offset=-2 / threads=6 / lookahead_threads=1 / sliced_threads=0 / nr=0 / decimate=1 / interlaced=0 / bluray_compat=1 / constrained_intra=0 / bframes=3 / b_pyramid=1 / b_adapt=2 / b_bias=0 / direct=3 / weightb=1 / open_gop=1 / weightp=1 / keyint=240 / keyint_min=1 / scenecut=40 / intra_refresh=0 / rc_lookahead=40 / rc=2pass / mbtree=0 / bitrate=8727 / ratetol=1.0 / qcomp=0.65 / qpmin=0 / qpmax=69 / qpstep=4 / cplxblur=20.0 / qblur=0.5 / vbv_maxrate=50000 / vbv_bufsize=62500 / nal_hrd=vbr / ip_ratio=1.40 / pb_ratio=1.30 / aq=1:0.80
Language                                 : English
Default                                  : Yes
Forced                                   : No
Color primaries                          : BT.709
Transfer characteristics                 : BT.709
Matrix coefficients                      : BT.709

Audio #1
ID                                       : 2
Format                                   : AC-3
Format/Info                              : Audio Coding 3
Mode extension                           : CM (complete main)
Format settings, Endianness              : Big
Codec ID                                 : A_AC3
Duration                                 : 1h 58mn
Bit rate mode                            : Constant
Bit rate                                 : 192 Kbps
Channel count                            : 2 channels
Channel positions                        : Front: L R
Sampling rate                            : 48.0 KHz
Bit depth                                : 16 bits
Compression mode                         : Lossy
Stream size                              : 162 MiB (2%)
Title                                    : Dub [1+1] 2.0 192 kbps [Hurtom-karvai0]
Language                                 : Ukrainian
Default                                  : Yes
Forced                                   : No

Audio #2
ID                                       : 3
Format                                   : AC-3
Format/Info                              : Audio Coding 3
Mode extension                           : CM (complete main)
Format settings, Endianness              : Big
Codec ID                                 : A_AC3
Duration                                 : 1h 58mn
Bit rate mode                            : Constant
Bit rate                                 : 192 Kbps
Channel count                            : 2 channels
Channel positions                        : Front: L R
Sampling rate                            : 48.0 KHz
Bit depth                                : 16 bits
Compression mode                         : Lossy
Stream size                              : 162 MiB (2%)
Title                                    : MVO [ICTV] 2.0 192 kbps [Hurtom-karvai0]
Language                                 : Ukrainian
Default                                  : No
Forced                                   : No

Audio #3
ID                                       : 4
Format                                   : AC-3
Format/Info                              : Audio Coding 3
Mode extension                           : CM (complete main)
Format settings, Endianness              : Big
Codec ID                                 : A_AC3
Duration                                 : 1h 58mn
Bit rate mode                            : Constant
Bit rate                                 : 192 Kbps
Channel count                            : 2 channels
Channel positions                        : Front: L R
Sampling rate                            : 48.0 KHz
Bit depth                                : 16 bits
Compression mode                         : Lossy
Stream size                              : 162 MiB (2%)
Title                                    : MVO [Novyj] 2.0 192 kbps [Hurtom-karvai0]
Language                                 : Ukrainian
Default                                  : No
Forced                                   : No

Audio #4
ID                                       : 5
Format                                   : AC-3
Format/Info                              : Audio Coding 3
Mode extension                           : CM (complete main)
Format settings, Endianness              : Big
Codec ID                                 : A_AC3
Duration                                 : 1h 58mn
Bit rate mode                            : Constant
Bit rate                                 : 448 Kbps
Channel count                            : 6 channels
Channel positions                        : Front: L C R, Side: L R, LFE
Sampling rate                            : 48.0 KHz
Bit depth                                : 16 bits
Compression mode                         : Lossy
Stream size                              : 379 MiB (5%)
Title                                    : Original
Language                                 : English
Default                                  : No
Forced                                   : No

Text
ID                                       : 6
Format                                   : UTF-8
Codec ID                                 : S_TEXT/UTF8
Codec ID/Info                            : UTF-8 Plain Text
Title                                    : Eng full
Language                                 : English
Default                                  : No
Forced                                   : No

Menu
00:00:00.000                             : en:00:00:00.000
00:05:00.000                             : en:00:05:00.000
00:10:00.000                             : en:00:10:00.000
00:15:00.000                             : en:00:15:00.000
00:20:00.000                             : en:00:20:00.000
00:25:00.000                             : en:00:25:00.000
00:30:00.000                             : en:00:30:00.000
00:35:00.000                             : en:00:35:00.000
00:40:00.000                             : en:00:40:00.000
00:45:00.000                             : en:00:45:00.000
00:50:00.000                             : en:00:50:00.000
00:55:00.000                             : en:00:55:00.000
01:00:00.000                             : en:01:00:00.000
01:05:00.000                             : en:01:05:00.000
01:10:00.000                             : en:01:10:00.000
01:15:00.000                             : en:01:15:00.000
01:20:00.000                             : en:01:20:00.000
01:25:00.000                             : en:01:25:00.000
01:30:00.000                             : en:01:30:00.000
01:35:00.000                             : en:01:35:00.000
01:40:00.000                             : en:01:40:00.000
01:45:00.000                             : en:01:45:00.000
01:50:00.000                             : en:01:50:00.000
01:55:00.000                             : en:01:55:00.000




Джерела та подяки: &
ріп відео, оригінальні звук та субтитри - delia (Freeisland); українські доріжки - karvai0 - зведення, ratbol, Sando7, OlegCena, xslim, MAKAPOHHIK - запис з ТБ (всі - Гуртом).

Особиста оцінка: 8 - мені сподобалося


ЗАЛИШАЙТЕСЬ ЯКОМОГА ДОВШЕ НА РОЗДАЧІ!

СКАЧАВ САМ - ДАЙ СКАЧАТИ ІНШИМ


 Трекер:    Зареєстрований   

Завантажити / скачати фільм українською



відео для новачків



 Зареєстрований:   2013-11-19 13:06
 Розмір:   8.05 GB 
 Оцінка фільму:   6.1/10 (Голосів: 26)
   
rumsasha 
Частий відвідувач


З нами з: 31.01.09
Востаннє: 05.12.16
Повідомлень: 32

2014-01-05 23:18  
Було б гарно постер локалізувати - він прикольний, українською взагалі бомбезно буде!
Ваш часовий пояс: GMT + 2 Години

Нова тема   Відповісти