Завантажити та скачати торренти українською


Спецназ міста янголів / S.W.A.T. (2003) 1080p Ukr/Eng | Sub Eng

Нові коментарі

Нова тема   Відповісти
Автор Повідомлення
Anonymous 







2013-11-18 22:06  
Спецназ міста янголів / S.W.A.T. (2003) 1080p Ukr/Eng | Sub Eng



Альтернативні постери





Жанр: бойовик, трилер, кримінальний
Країна: США



Кінокомпанія: Columbia Pictures Corporation, Original Film, Camelot Pictures
Режисер: Кларк Джонсон / Clark Johnson
Актори: Семюель Л. Джексон / Samuel L. Jackson, Колін Фаррелл / Colin Farrell, Мішель Родріґез / Michelle Rodriguez, ЕльЕль Кул Джей / LL Cool J, Олівер Мартінез / Olivier Martinez, Джеремі Реннер / Jeremy Renner, Джош Чарльз / Josh Charles та інші

Сюжет:
У поліції США існує безліч видів спецназу, але найкрутішим вважається Спецзагін, відбір до лав якого є справжнім випробуванням. Джима Стріта (К.Фаррелл) з поліції Лос-Анджелеса зараховують до складу Спецзагону. Після навчання і тренувань молоде поповнення на чолі з командиром Хондо (С.Л.Джексон) чекає перше випробування - перевезення відомого наркобарона до в'язниці.

Просте на перший погляд завдання ускладнюється тим, що багатий ув'язнений призначає за своє звільнення неймовірну суму - 100 мільйонів доларів! Тому протягом всього шляху Спецпідрозділу доведеться відбивати безперервні атаки охочих отримати нагороду ...



Рейтинг MPAA: PG-13 - дітям до 13 років перегляд не бажаний
Вікова категорія: 12+


Тривалість: 01:57:17
Якість: 1080p
Відео:
кодек:
розмір кадру: 1920 х 800
бітрейт: 8428 кб/с

Аудіо # 1:
мова: українська
переклад: двоголосий закадровий
ролі озвучили: Юлія Перенчук та Андрій Бурлуцький
кодек: 5.1
бітрейт: 384 кб/с
Інформація про озвучення

Переклад: Роман Мірошниченко
Літературний редактор: Валентина Левицька
Звукорежисер: Віктор Коляда
Режисер: Сергій Гаврилюк
Ролі озвучили: Юлія Перенчук та Андрій Бурлуцький
Аудіо # 2:
мова: англійська
переклад: оригінал
кодек: 5.1
бітрейт: 640 кб/с
MediaInfo та
[info]: frame I:1333 Avg QP:16.14 size:155255
[info]: frame P:46550 Avg QP:17.84 size: 70550
[info]: frame B:120837 Avg QP:19.87 size: 32445
Код:
General
Unique ID                                : 248711953248685990474691064408229713801 (0xBB1C2E0943C40F1B937DA368A45A9789)
Complete name                            : S.W.A.T. (2003) [Ukr,Eng sub.Eng] 1080p [Hurtom].mkv
Format                                   : Matroska
Format version                           : Version 4 / Version 2
File size                                : 7.74 GiB
Duration                                 : 1h 57mn
Overall bit rate                         : 9 452 Kbps
Movie name                               : Спецназ міста янголів / S.W.A.T. (2003) 1080p [Hurtom]
Encoded date                             : UTC 2013-11-18 15:43:29
Writing application                      : mkvmerge v6.5.0 ('Isn't she lovely') built on Oct 20 2013 12:50:05
Writing library                          : libebml v1.3.0 + libmatroska v1.4.1

Video
ID                                       : 1
Format                                   : AVC
Format/Info                              : Advanced Video Codec
Format profile                           : [email protected]
Format settings, CABAC                   : Yes
Format settings, ReFrames                : 5 frames
Codec ID                                 : V_MPEG4/ISO/AVC
Duration                                 : 1h 57mn
Bit rate                                 : 8 428 Kbps
Width                                    : 1 920 pixels
Height                                   : 800 pixels
Display aspect ratio                     : 2.40:1
Frame rate mode                          : Constant
Frame rate                               : 23.976 fps
Color space                              : YUV
Chroma subsampling                       : 4:2:0
Bit depth                                : 8 bits
Scan type                                : Progressive
Bits/(Pixel*Frame)                       : 0.229
Stream size                              : 6.75 GiB (87%)
Title                                    : Спецназ міста янголів / S.W.A.T. / S.W.A.T.: Спецназ города ангелов (2003) 1080p [K.A.F.]
Writing library                          : core 135 r2345 f0c1c53
Encoding settings                        : cabac=1 / ref=5 / deblock=1:0:0 / analyse=0x3:0x133 / me=tesa / subme=11 / psy=1 / psy_rd=1.00:0.07 / mixed_ref=1 / me_range=32 / chroma_me=1 / trellis=2 / 8x8dct=1 / cqm=0 / deadzone=21,11 / fast_pskip=0 / chroma_qp_offset=-3 / threads=12 / lookahead_threads=1 / sliced_threads=0 / nr=0 / decimate=0 / interlaced=0 / bluray_compat=0 / constrained_intra=0 / bframes=6 / b_pyramid=2 / b_adapt=2 / b_bias=0 / direct=3 / weightb=1 / open_gop=0 / weightp=2 / keyint=240 / keyint_min=23 / scenecut=40 / intra_refresh=0 / rc=2pass / mbtree=0 / bitrate=8428 / ratetol=1.0 / qcomp=0.60 / qpmin=0 / qpmax=69 / qpstep=4 / cplxblur=20.0 / qblur=0.5 / ip_ratio=1.40 / pb_ratio=1.30 / aq=1:1.00
Language                                 : English
Default                                  : Yes
Forced                                   : No

Audio #1
ID                                       : 2
Format                                   : AC-3
Format/Info                              : Audio Coding 3
Mode extension                           : CM (complete main)
Format settings, Endianness              : Big
Codec ID                                 : A_AC3
Duration                                 : 1h 57mn
Bit rate mode                            : Constant
Bit rate                                 : 384 Kbps
Channel count                            : 6 channels
Channel positions                        : Front: L C R, Side: L R, LFE
Sampling rate                            : 48.0 KHz
Bit depth                                : 16 bits
Compression mode                         : Lossy
Stream size                              : 322 MiB (4%)
Title                                    : DVO [1+1] 5.1 384 kbps [Hurtom-_oles]
Language                                 : Ukrainian
Default                                  : Yes
Forced                                   : No

Audio #2
ID                                       : 3
Format                                   : AC-3
Format/Info                              : Audio Coding 3
Mode extension                           : CM (complete main)
Format settings, Endianness              : Big
Codec ID                                 : A_AC3
Duration                                 : 1h 57mn
Bit rate mode                            : Constant
Bit rate                                 : 640 Kbps
Channel count                            : 6 channels
Channel positions                        : Front: L C R, Side: L R, LFE
Sampling rate                            : 48.0 KHz
Bit depth                                : 16 bits
Compression mode                         : Lossy
Stream size                              : 537 MiB (7%)
Title                                    : Original 5.1ch 640 kbps
Language                                 : English
Default                                  : No
Forced                                   : No

Text
ID                                       : 4
Format                                   : UTF-8
Codec ID                                 : S_TEXT/UTF8
Codec ID/Info                            : UTF-8 Plain Text
Title                                    : Eng full
Language                                 : English
Default                                  : No
Forced                                   : No




Джерела та подяки:
ріп відео, оригінальні звук та субтитри - K.A.F. (рутор); українська доріжка - _oles - зведення (з якіснішого запису, з релізу від 14.11.2013), xSlim, ProgBassing та POMEO - запис з ТБ; українські постери - Kinoreliz, Воїн (всі - Гуртом).

Особиста оцінка: 8 - мені сподобалося


ЗАЛИШАЙТЕСЬ ЯКОМОГА ДОВШЕ НА РОЗДАЧІ!

СКАЧАВ САМ - ДАЙ СКАЧАТИ ІНШИМ


Срібний реліз (на рейтинг впливає 50% завантаженого)
 Трекер:    Зареєстрований   

Завантажити / скачати фільм українською



відео для новачків



 Зареєстрований:   2013-11-18 22:06
 Розмір:   7.74 GB 
 Оцінка фільму:   3.1/10 (Голосів: 13)
   
Ваш часовий пояс: GMT + 2 Години

Нова тема   Відповісти