Завантажити та скачати торренти українською


Ядро землі / Земне ядро / The Core (2003) 720p 2xUkr/Eng | Sub Eng

Нові коментарі

Нова тема   Відповісти
Автор Повідомлення
Anonymous 







2013-11-17 22:47  
Ядро землі / Земне ядро / The Core (2003) 720p 2xUkr/Eng | Sub Eng



Українізований постер



Жанр: фантастика, бойовик, трилер, пригодницький
Країна: США, Німеччина, Канада



Кінокомпанія: Paramount Pictures, David Foster Productions, Munich Film Partners New Century & Company (MFP)
Режисер: Джон Аміель / Jon Amiel
Композитор: Крістофер Янг / Christopher Young
Актори: Аарон Екгарт / Aaron Eckhart, Хіларі Свонк / Hilary Swank, Делрой Ліндо / Delroy Lindo, Стенлі Туччі / Stanley Tucci, Річард Дженкінс / Richard Jenkins, Крістофер Шайер / Christopher Shyer, Рей Галлетті / Ray Galletti, Ейлін Педді / Eileen Pedde, Рекха Шарма / Rekha Sharma, Діджей Кваллас / DJ Qualls, Том Шолте / Tom Scholte, Гленн Моршовер / Glenn Morshower, Брюс Грінвуд / Bruce Greenwood, Ентоні Харрісон / Anthony Harrison, Чекі Каріо / Tcheky Karyo та інші

Сюжет:
Ядро Землі зупинилося - воно вже більше не обертається. По всьому світу проходять небачені природні катаклізми, а птахи ніби збожеволіли. Поки ще не занадто пізно, щоб спробувати знову запустити ядро, доктор Джош та команда з 5 чоловік опускається в самий центр Землі. План простий - запустити ядро декількома ядерними бомбами. Зрештою виявляється, що причиною зупинки ядра стало ніщо інше, аніж втручання армії - через проект "Доля", який розташований на Алясці.



Рейтинг MPAA: PG-13 - дітям до 13 років перегляд не бажаний
Вікова категорія: 12+


Тривалість: 02:14:57
Якість: 720p (ріп від CtrlHD)
Відео:
кодек:
розмір кадру: 1280 x 544
бітрейт: 6312 кб/с

Аудіо # 1:
мова: українська
переклад: двоголосий закадровий
ролі озвучили: Олександр Завальський та Ольга Радчук
кодек: 2.0
бітрейт: 192 кб/с

Аудіо # 2:
мова: українська
переклад: багатоголосий закадровий
ролі озвучили: Дмитро Гаврилов, Дмитро Терещук, Юрій Гребельник та Наталя Поліщук
кодек: 2.0
бітрейт: 192 кб/с
ролі озвучили:

Аудіо # 3:
мова: англійська
переклад: оригінал
кодек: 5.1
бітрейт: 1536 кб/с

Субтитри:
мова: англійська
тип: програмні (м'які)
формат: *.srt

Збережено оригінальні розділи, як на Blu-ray.
MediaInfo
Код:
General
Unique ID                                : 194853811464556904615013173281879439505 (0x92977AA1902858D286417361E52F3891)
Complete name                            : The Core (2003) [2xUkr,Eng sub.Eng] 720p [Hurtom & HDClub].mkv
Format                                   : Matroska
Format version                           : Version 4 / Version 2
File size                                : 7.89 GiB
Duration                                 : 2h 14mn
Overall bit rate                         : 8 371 Kbps
Movie name                               : Ядро землі / Земне ядро / The Core / Земное ядро (2003) 720p [Hurtom & HDClub]
Encoded date                             : UTC 2013-11-14 05:24:32
Writing application                      : mkvmerge v6.5.0 ('Isn't she lovely') built on Oct 20 2013 12:50:05
Writing library                          : libebml v1.3.0 + libmatroska v1.4.1

Video
ID                                       : 1
Format                                   : AVC
Format/Info                              : Advanced Video Codec
Format profile                           : [email protected]
Format settings, CABAC                   : Yes
Format settings, ReFrames                : 12 frames
Codec ID                                 : V_MPEG4/ISO/AVC
Duration                                 : 2h 14mn
Bit rate                                 : 6 312 Kbps
Width                                    : 1 280 pixels
Height                                   : 544 pixels
Display aspect ratio                     : 2.35:1
Frame rate mode                          : Constant
Frame rate                               : 23.976 fps
Color space                              : YUV
Chroma subsampling                       : 4:2:0
Bit depth                                : 8 bits
Scan type                                : Progressive
Bits/(Pixel*Frame)                       : 0.378
Stream size                              : 5.95 GiB (75%)
Title                                    : Ядро землі / Земне ядро / The Core / Земное ядро (2003) 720p [CtrlHD]
Writing library                          : core 128 r2216kMod 198a7ea
Encoding settings                        : cabac=1 / ref=12 / deblock=1:-3:-3 / analyse=0x3:0x113 / me=umh / subme=9 / psy=1 / fade_compensate=0.00 / psy_rd=1.05:0.00 / mixed_ref=1 / me_range=16 / chroma_me=1 / trellis=2 / 8x8dct=1 / cqm=0 / deadzone=21,11 / fast_pskip=0 / chroma_qp_offset=-2 / threads=6 / lookahead_threads=1 / sliced_threads=0 / nr=0 / decimate=0 / interlaced=0 / bluray_compat=0 / constrained_intra=0 / bframes=8 / b_pyramid=2 / b_adapt=2 / b_bias=0 / direct=3 / weightb=1 / open_gop=0 / weightp=2 / keyint=250 / keyint_min=23 / scenecut=40 / intra_refresh=0 / rc=crf / mbtree=0 / crf=18.0000 / qcomp=0.80 / qpmin=0 / qpmax=69 / qpstep=4 / ip_ratio=1.30 / pb_ratio=1.10 / aq=1:0.90
Language                                 : English
Default                                  : No
Forced                                   : No

Audio #1
ID                                       : 2
Format                                   : AC-3
Format/Info                              : Audio Coding 3
Mode extension                           : CM (complete main)
Format settings, Endianness              : Big
Codec ID                                 : A_AC3
Duration                                 : 2h 14mn
Bit rate mode                            : Constant
Bit rate                                 : 192 Kbps
Channel count                            : 2 channels
Channel positions                        : Front: L R
Sampling rate                            : 48.0 KHz
Bit depth                                : 16 bits
Compression mode                         : Lossy
Stream size                              : 185 MiB (2%)
Title                                    : DVO [1+1] 2.0 192 kbps [Hurtom-karvai0]
Language                                 : Ukrainian
Default                                  : Yes
Forced                                   : No

Audio #2
ID                                       : 3
Format                                   : AC-3
Format/Info                              : Audio Coding 3
Mode extension                           : CM (complete main)
Format settings, Endianness              : Big
Codec ID                                 : A_AC3
Duration                                 : 2h 14mn
Bit rate mode                            : Constant
Bit rate                                 : 192 Kbps
Channel count                            : 2 channels
Channel positions                        : Front: L R
Sampling rate                            : 48.0 KHz
Bit depth                                : 16 bits
Compression mode                         : Lossy
Stream size                              : 185 MiB (2%)
Title                                    : MVO [K1-TakTrebaProduction] 2.0 192 kbps [Hurtom-karvai0]
Language                                 : Ukrainian
Default                                  : No
Forced                                   : No

Audio #3
ID                                       : 4
Format                                   :
Format/Info                              : Digital Theater Systems
Mode                                     : 16
Format settings, Endianness              : Big
Codec ID                                 : A_DTS
Duration                                 : 2h 14mn
Bit rate mode                            : Constant
Bit rate                                 : 1 509 Kbps
Channel count                            : 6 channels
Channel positions                        : Front: L C R, Side: L R, LFE
Sampling rate                            : 48.0 KHz
Bit depth                                : 24 bits
Compression mode                         : Lossy
Stream size                              : 1.42 GiB (18%)
Title                                    : Original 5.1 1536 kbps
Language                                 : English
Default                                  : No
Forced                                   : No

Text
ID                                       : 5
Format                                   : UTF-8
Codec ID                                 : S_TEXT/UTF8
Codec ID/Info                            : UTF-8 Plain Text
Title                                    : Eng full
Language                                 : English
Default                                  : No
Forced                                   : No

Menu
00:00:00.000                             : en:Chapter 1
00:07:12.807                             : en:Chapter 2
00:11:09.002                             : en:Chapter 3
00:18:15.261                             : en:Chapter 4
00:27:57.342                             : en:Chapter 5
00:32:53.972                             : en:Chapter 6
00:35:58.490                             : en:Chapter 7
00:40:12.994                             : en:Chapter 8
00:47:26.761                             : en:Chapter 9
00:50:08.464                             : en:Chapter 10
01:01:19.593                             : en:Chapter 11
01:11:50.056                             : en:Chapter 12
01:22:25.899                             : en:Chapter 13
01:29:28.196                             : en:Chapter 14
01:33:43.034                             : en:Chapter 15
01:39:00.643                             : en:Chapter 16
01:44:38.355                             : en:Chapter 17
01:52:21.109                             : en:Chapter 18
01:58:07.247                             : en:Chapter 19
02:03:58.014                             : en:Chapter 20




Джерело: &
ріп відео, оригінальні звук та субтитри - Vitaha94 (HDClub); українські доріжки - karvai0 - зведення, Merdiff, drakon87 - запис з ТБ; українізований постер - eastern_sun (всі - Гуртом).


ЗАЛИШАЙТЕСЬ ЯКОМОГА ДОВШЕ НА РОЗДАЧІ!

СКАЧАВ САМ - ДАЙ СКАЧАТИ ІНШИМ


Срібний реліз (на рейтинг впливає 50% завантаженого)
 Трекер:    Зареєстрований   

Завантажити / скачати фільм українською



відео для новачків



 Зареєстрований:   2013-11-17 22:47
 Розмір:   7.89 GB 
 Оцінка фільму:   5.1/10 (Голосів: 21)
   
Інші релізи
fl_fl 
Відео Гуртом - фільмокрай
Відео Гуртом - фільмокрай


З нами з: 26.05.09
Востаннє: 10.12.16
Повідомлень: 3047

2014-04-15 23:23  
igor911 написано:
невстановлений жіночий голос.

Наталія Поліщук.

Anonymous 







2014-04-16 16:02  
fl_fl написано:
Наталія Поліщук

Дякую

Ваш часовий пояс: GMT + 2 Години

Нова тема   Відповісти