Завантажити та скачати торренти українською


Красунчик Джонні / Johnny Handsome (1989) 720p Ukr/Eng | Sub Eng

Нові коментарі

Нова тема   Відповісти
Автор Повідомлення
Anonymous 







2013-11-17 15:22  
Красунчик Джонні / Johnny Handsome (1989) 720p Ukr/Eng | Sub Eng



Жанр: трилер, драма, кримінальний
Країна: США



Кінокомпанія: Carolco Pictures, Guber-Peters Company
Режисер: Волтер Хілл / Walter Hill
Актори: Міккі Рурк / Mickey Rourke, Еллен Баркін / Ellen Barkin, Елізабет МакГоверн / Elizabeth McGovern, Морган Фріман / Morgan Freeman, Форест Вайтакер / Forest Whitaker, Ленс Хенріксен / Lance Henriksen, Скотт Вілсон / Scott Wilson, Девід Шремм / David Schramm, Івонн Брайсленд / Yvonne Bryceland, Пітер Джейсон / Peter Jason, Дж.В. Сміт / J.W. Smith, Аллан Граф / Allan Graf, Ед Занг / Ed Zang, Джон П. Фертітта / John P. Fertitta, Рейнор Шайні / Raynor Scheine, Едвард Уолш / Edward Walsh, Джим Берк / Jim Burk, Кен Медлок / Ken Medlock, Річард Е. Батлер / Richard E. Butler та інші.

Сюжет:
Джон Седлі народився зі спотвореним обличчям, і це вкупі з важким дитинством визначило його долю - він став злочинцем. Під час збройного пограбування він і його друг Майкі виявилися обдуреними партнерами. Майки був убитий, а Джоні пішов до в'язниці, але нікого не заклав, розраховуючи вийти на свободу і помститися.
У в'язниці він за допомогою гуманного чорношкірого хірурга отримує нове, дуже навіть симпатичне обличчя, і з часом його відпускають за амністією. Він починає небезпечну гру, щоб поквитатися із зрадниками.



Рейтинг MPAA: R - особам до 17 років обов'язкова присутність батьків або дорослого опікуна
Вікова категорія: 16+


Тривалість: 01:33:37
Якість: 720p
Відео:
кодек:
розмір кадру: 1280 x 692
бітрейт: 5148 кб/с

Аудіо # 1:
мова: українська
переклад: двоголосий закадровий
ролі озвучили: Михайло Жонін та Ніна Касторф
кодек: 2.0
бітрейт: 224 кб/с

Аудіо # 2:
мова: англійська
переклад: оригінал
кодек: 2.0
бітрейт: 448 кб/с

Субтитри:
мова: англійська
тип: програмні (м'які)
формат: *.srt

Збережено оригінальні розділи, як на Blu-ray.
MediaInfo
Код:
General
Unique ID                                : 209315280658160305185076667177374904110 (0x9D78A81C6CE5F26F8B723B9B6540EF2E)
Complete name                            : Johnny Handsome (1989) [Ukr,Eng sub.Eng] 720p [Hurtom].mkv
Format                                   : Matroska
Format version                           : Version 4 / Version 2
File size                                : 3.80 GiB
Duration                                 : 1h 33mn
Overall bit rate                         : 5 818 Kbps
Movie name                               : Красунчик Джонні / Johnny Handsome (1989) 720p [Hurtom]
Encoded date                             : UTC 2013-11-15 15:26:36
Writing application                      : mkvmerge v6.5.0 ('Isn't she lovely') built on Oct 20 2013 12:50:05
Writing library                          : libebml v1.3.0 + libmatroska v1.4.1

Video
ID                                       : 1
Format                                   : AVC
Format/Info                              : Advanced Video Codec
Format profile                           : [email protected]
Format settings, CABAC                   : Yes
Format settings, ReFrames                : 9 frames
Codec ID                                 : V_MPEG4/ISO/AVC
Duration                                 : 1h 33mn
Bit rate                                 : 5 148 Kbps
Width                                    : 1 280 pixels
Height                                   : 692 pixels
Display aspect ratio                     : 1.85:1
Frame rate mode                          : Constant
Frame rate                               : 23.976 fps
Color space                              : YUV
Chroma subsampling                       : 4:2:0
Bit depth                                : 8 bits
Scan type                                : Progressive
Bits/(Pixel*Frame)                       : 0.242
Stream size                              : 3.29 GiB (86%)
Title                                    : Красунчик Джонні / Johnny Handsome / Красавчик Джонни (1989) 720p [denis100]
Writing library                          : core 140 r2377 1ca7bb9
Encoding settings                        : cabac=1 / ref=9 / deblock=1:0:0 / analyse=0x3:0x133 / me=umh / subme=11 / psy=1 / psy_rd=1.00:0.10 / mixed_ref=1 / me_range=32 / chroma_me=1 / trellis=2 / 8x8dct=1 / cqm=0 / deadzone=21,11 / fast_pskip=0 / chroma_qp_offset=-3 / threads=6 / lookahead_threads=1 / sliced_threads=0 / nr=0 / decimate=0 / interlaced=0 / bluray_compat=0 / constrained_intra=0 / bframes=7 / b_pyramid=2 / b_adapt=2 / b_bias=0 / direct=3 / weightb=1 / open_gop=0 / weightp=2 / keyint=240 / keyint_min=23 / scenecut=40 / intra_refresh=0 / rc=2pass / mbtree=0 / bitrate=5148 / ratetol=1.0 / qcomp=0.60 / qpmin=0 / qpmax=69 / qpstep=4 / cplxblur=20.0 / qblur=0.5 / ip_ratio=1.40 / pb_ratio=1.30 / aq=1:0.90
Language                                 : English
Default                                  : Yes
Forced                                   : No

Audio #1
ID                                       : 2
Format                                   : AC-3
Format/Info                              : Audio Coding 3
Mode extension                           : CM (complete main)
Format settings, Endianness              : Big
Codec ID                                 : A_AC3
Duration                                 : 1h 33mn
Bit rate mode                            : Constant
Bit rate                                 : 224 Kbps
Channel count                            : 2 channels
Channel positions                        : Front: L R
Sampling rate                            : 48.0 KHz
Bit depth                                : 16 bits
Compression mode                         : Lossy
Delay relative to video                  : 14ms
Stream size                              : 150 MiB (4%)
Title                                    : MVO [2+2] 2.0 224 kbps [Hurtom-Lan]
Language                                 : Ukrainian
Default                                  : Yes
Forced                                   : No

Audio #2
ID                                       : 3
Format                                   : AC-3
Format/Info                              : Audio Coding 3
Mode extension                           : CM (complete main)
Format settings, Endianness              : Big
Codec ID                                 : A_AC3
Duration                                 : 1h 33mn
Bit rate mode                            : Constant
Bit rate                                 : 448 Kbps
Channel count                            : 2 channels
Channel positions                        : Front: L R
Sampling rate                            : 48.0 KHz
Bit depth                                : 16 bits
Compression mode                         : Lossy
Stream size                              : 300 MiB (8%)
Title                                    : Original
Language                                 : English
Default                                  : No
Forced                                   : No

Text
ID                                       : 4
Format                                   : UTF-8
Codec ID                                 : S_TEXT/UTF8
Codec ID/Info                            : UTF-8 Plain Text
Title                                    : Eng full
Language                                 : English
Default                                  : No
Forced                                   : No

Menu
00:00:00.000                             : en:Chapter 01
00:06:19.754                             : en:Chapter 02
00:10:28.627                             : en:Chapter 03
00:17:59.869                             : en:Chapter 04
00:24:44.523                             : en:Chapter 05
00:30:59.274                             : en:Chapter 06
00:36:24.431                             : en:Chapter 07
00:43:25.853                             : en:Chapter 08
00:49:10.781                             : en:Chapter 09
00:53:03.555                             : en:Chapter 10
00:58:31.758                             : en:Chapter 11
01:05:23.920                             : en:Chapter 12
01:12:57.831                             : en:Chapter 13
01:17:49.414                             : en:Chapter 14
01:21:28.341                             : en:Chapter 15
01:27:28.910                             : en:Chapter 16
01:33:37.194                             : en:Chapter 17




Джерела та подяки:
ріп відео, оригінальний звук - denis_100 (рутор); українська доріжка - Neo777 - зведення, karvai0 - запис з ТБ, Lan - робота зі звуком (стерео), заливка на сервер доріжок; український постер - HectoR_UA (всі - Гуртом).

Особиста оцінка: 7 - непоганий олдскульний трилер з хорошими акторами, спроба знайти відповідь на питання "Чи можливо змінивши лице людини змінити її душу?"


ЗАЛИШАЙТЕСЬ ЯКОМОГА ДОВШЕ НА РОЗДАЧІ!

СКАЧАВ САМ - ДАЙ СКАЧАТИ ІНШИМ


Срібний реліз (на рейтинг впливає 50% завантаженого)
 Трекер:    Зареєстрований   

Завантажити / скачати фільм українською



відео для новачків



 Зареєстрований:   2013-11-17 15:22
 Розмір:   3.8 GB 
 Оцінка фільму:   3.7/10 (Голосів: 15)
   
Інші релізи
waldi-hurtom 
VIP


З нами з: 07.10.12
Востаннє: 09.12.16
Повідомлень: 613

2013-11-22 17:54  
Цікаві актори, непогана гра місцями, але загалом - досить посередній фільм. Безглуздий. 6 з 10.
Ваш часовий пояс: GMT + 2 Години

Нова тема   Відповісти