Завантажити та скачати торренти українською


Їх поміняли місцями / Помінятися місцями / Trading Places (1983) 720p 2xUkr/Eng | Sub Eng

Нові коментарі

Нова тема   Відповісти
Автор Повідомлення
Anonymous 







2013-11-17 12:55  
Їх поміняли місцями / Помінятися місцями / Trading Places (1983) 720p 2xUkr/Eng | Sub Eng



Жанр: комедія
Країна: США



Кінокомпанія: Cinema Group Ventures, Paramount Pictures
Режисер: John Landis
Актори: Ден Айкройд / Dan Aykroyd, Едді Мерфі / Eddie Murphy, Джеймі Лі Кертіс / Jamie Lee Curtis, Ральф Белламі / Ralph Bellamy, Дон Амеш / Don Ameche, Денхолм Елліотт / Denholm Elliott, Крістін Холбі / Kristin Holby, Пол Ґлісон / Paul Gleason, Джеймс Белуші / James Belushi

Сюжет:
Життя респектабельного бізнесмена Луїса Вінтропа Третього, керівника багатющої компанії з Волл-Стрит, круто міняється після того, як його боси, брати Дьюк, укладають незвичайне парі. Один з братів вважає, що управляти компанією може хто завгодно, навіть найзапекліший і неосвіченіший пройдисвіт.

Поставивши на кон доллар, брати знаходять для свого експерименту вуличного шахрая Біллі Рея Валентайна, якому і пропонують очолити компанію замість Вінтропа. Ексцентрична парочка Дьюков і не підозрює, що, помінявши місцями пройдисвіта і бізнесмена, вони ризикують значно більше, ніж могли б собі уявити.


Рейтинг MPAA: R - особам до 17 років обов'язкова присутність батьків або дорослого опікуна
Вікова категорія: 16+

Тривалість: 01:56:22
Якість: 720p
Відео:
кодек:
розмір кадру: 1280x720
бітрейт: 6500 кб/с

Аудіо # 1:
мова: українська
переклад: багатоголосий закадровий
кодек: 2.0
бітрейт: 192 кб/с

Аудіо # 2:
мова: українська - Студія "ТВ+" на замовлення
переклад: багатоголосий закадровий
ролі озвучили: Михайло Жонін (Едді Мерфі / Біллі Рей Валентайн), можливо Михайло Войчук та Людмила Ардельян
кодек: 5.1
бітрейт: 384 кб/с

Аудіо # 3:
мова: англійська
переклад: оригінал
кодек: 5.1
бітрейт: 640 кб/с

Субтитри:
мова: англійська
тип: програмні (м'які)
формат: *.srt

Збережено оригінальні розділи, як на Blu-ray.
MediaInfo
Код:
General
Unique ID                                : 184969025761536909122559034930991852037 (0x8B27BD1199FCDB5681689F551295EA05)
Complete name                            : Trading Places (1983) [2xUkr,Eng sub.Eng] 720p [Hurtom & MediaClub].mkv
Format                                   : Matroska
Format version                           : Version 4 / Version 2
File size                                : 6.27 GiB
Duration                                 : 1h 56mn
Overall bit rate                         : 7 718 Kbps
Movie name                               : Помінятися місцями / Trading Places (1983) 720p [Hurtom & MediaClub]
Encoded date                             : UTC 2014-05-01 13:15:08
Writing application                      : mkvmerge v6.9.1 ('Blue Panther') 64bit built on Apr 18 2014 18:23:38
Writing library                          : libebml v1.3.0 + libmatroska v1.4.1

Video
ID                                       : 1
Format                                   : AVC
Format/Info                              : Advanced Video Codec
Format profile                           : [email protected]
Format settings, CABAC                   : Yes
Format settings, ReFrames                : 9 frames
Codec ID                                 : V_MPEG4/ISO/AVC
Duration                                 : 1h 56mn
Bit rate                                 : 6 500 Kbps
Width                                    : 1 280 pixels
Height                                   : 720 pixels
Display aspect ratio                     : 16:9
Frame rate mode                          : Constant
Frame rate                               : 23.976 fps
Color space                              : YUV
Chroma subsampling                       : 4:2:0
Bit depth                                : 8 bits
Scan type                                : Progressive
Bits/(Pixel*Frame)                       : 0.294
Stream size                              : 5.16 GiB (82%)
Title                                    : Помінятися місцями / Trading Places / Поменяться местами (1983) 720p [MediaClub-Painter]
Writing library                          : core 125 r2208 d9d2288
Encoding settings                        : cabac=1 / ref=9 / deblock=1:-3:-3 / analyse=0x3:0x133 / me=umh / subme=11 / psy=1 / psy_rd=1.00:0.15 / mixed_ref=1 / me_range=32 / chroma_me=1 / trellis=2 / 8x8dct=1 / cqm=0 / deadzone=21,11 / fast_pskip=0 / chroma_qp_offset=-3 / threads=6 / lookahead_threads=1 / sliced_threads=0 / nr=0 / decimate=0 / interlaced=0 / bluray_compat=0 / constrained_intra=0 / bframes=7 / b_pyramid=2 / b_adapt=2 / b_bias=0 / direct=3 / weightb=1 / open_gop=0 / weightp=2 / keyint=240 / keyint_min=23 / scenecut=40 / intra_refresh=0 / rc=2pass / mbtree=0 / bitrate=6500 / ratetol=1.0 / qcomp=0.60 / qpmin=0 / qpmax=69 / qpstep=4 / cplxblur=20.0 / qblur=0.5 / ip_ratio=1.40 / pb_ratio=1.30 / aq=1:0.80
Language                                 : English
Default                                  : Yes
Forced                                   : No

Audio #1
ID                                       : 2
Format                                   : AC-3
Format/Info                              : Audio Coding 3
Mode extension                           : CM (complete main)
Format settings, Endianness              : Big
Codec ID                                 : A_AC3
Duration                                 : 1h 56mn
Bit rate mode                            : Constant
Bit rate                                 : 192 Kbps
Channel(s)                               : 2 channels
Channel positions                        : Front: L R
Sampling rate                            : 48.0 KHz
Bit depth                                : 16 bits
Compression mode                         : Lossy
Stream size                              : 160 MiB (2%)
Title                                    : MVO [K1] 2.0 192 kbps [Hurtom-taraskill1]
Language                                 : Ukrainian
Default                                  : Yes
Forced                                   : Yes

Audio #2
ID                                       : 3
Format                                   : AC-3
Format/Info                              : Audio Coding 3
Mode extension                           : CM (complete main)
Format settings, Endianness              : Big
Codec ID                                 : A_AC3
Duration                                 : 1h 56mn
Bit rate mode                            : Constant
Bit rate                                 : 384 Kbps
Channel(s)                               : 6 channels
Channel positions                        : Front: L C R, Side: L R, LFE
Sampling rate                            : 48.0 KHz
Bit depth                                : 16 bits
Compression mode                         : Lossy
Stream size                              : 320 MiB (5%)
Title                                    : MVO [TV+,ICTV] 5.1 384 kbps [Hurtom-rooster]
Language                                 : Ukrainian
Default                                  : No
Forced                                   : No

Audio #3
ID                                       : 4
Format                                   : AC-3
Format/Info                              : Audio Coding 3
Mode extension                           : CM (complete main)
Format settings, Endianness              : Big
Codec ID                                 : A_AC3
Duration                                 : 1h 56mn
Bit rate mode                            : Constant
Bit rate                                 : 640 Kbps
Channel(s)                               : 6 channels
Channel positions                        : Front: L C R, Side: L R, LFE
Sampling rate                            : 48.0 KHz
Bit depth                                : 16 bits
Compression mode                         : Lossy
Stream size                              : 533 MiB (8%)
Title                                    : Original
Language                                 : English
Default                                  : No
Forced                                   : No

Text
ID                                       : 5
Format                                   : UTF-8
Codec ID                                 : S_TEXT/UTF8
Codec ID/Info                            : UTF-8 Plain Text
Title                                    : Eng full
Language                                 : English
Default                                  : No
Forced                                   : No

Menu
00:00:00.000                             : :Chapter 01
00:03:42.013                             : :Chapter 02
00:06:28.846                             : :Chapter 03
00:16:00.084                             : :Chapter 04
00:18:41.078                             : :Chapter 05
00:23:11.306                             : :Chapter 06
00:28:51.604                             : :Chapter 07
00:32:44.671                             : :Chapter 08
00:39:16.937                             : :Chapter 09
00:45:14.086                             : :Chapter 10
00:53:56.399                             : :Chapter 11
00:57:49.299                             : :Chapter 12
01:01:00.615                             : :Chapter 13
01:06:12.885                             : :Chapter 14
01:11:49.805                             : :Chapter 15
01:23:24.165                             : :Chapter 16
01:27:10.058                             : :Chapter 17
01:38:48.839                             : :Chapter 18
01:48:45.727                             : :Chapter 19
01:51:03.657                             : :Chapter 20




Джерела та подяки: &
ріп відео, оригінальні звук та субтитри - Painter (MediaClub); українські доріжки - taraskill1, rooster, POMEO, karvai0 (всі - Гуртом).

Особиста оцінка: 7 - мені сподобалося


ЗАЛИШАЙТЕСЬ ЯКОМОГА ДОВШЕ НА РОЗДАЧІ!

СКАЧАВ САМ - ДАЙ СКАЧАТИ ІНШИМ


Срібний реліз (на рейтинг впливає 50% завантаженого)
 Трекер:    Зареєстрований   

Завантажити / скачати фільм українською



відео для новачків



 Зареєстрований:   2014-05-01 15:53
 Розмір:   6.27 GB 
 Оцінка фільму:   5.5/10 (Голосів: 21)
   
Anonymous 







2014-05-01 15:55  
Оновив реліз - додав українську озвучку від К1.
Ваш часовий пояс: GMT + 2 Години

Нова тема   Відповісти