Завантажити та скачати торренти українською


Джиперс Кріперс 2 / Jeepers Creepers II (2003) 720p Ukr/Eng | Sub Eng

Нові коментарі

Нова тема   Відповісти
Автор Повідомлення
braveboy 
Відео Гуртом - команда HD
Відео Гуртом - команда HD


З нами з: 15.06.10
Востаннє: 29.10.16
Повідомлень: 958

2013-11-14 06:33  

Джиперс Кріперс 2 / Jeepers Creepers II (2003) 720p Ukr/Eng | Sub Eng


Джиперс Кріперс 2 / Jeepers Creepers II (2003) 720p Ukr/Eng | Sub Eng


Жанр: жахи, трилер
Країна: США


Кінокомпанія: American Zoetrope Pictures
Режисер: Віктор Сальва
Актори: Рей Вайз, Джонатан Брек, Гарікаї Мутамбірва, Ерік Неннінгер, Ніккі Ейкокс, Тревіс Шиффнер, Лєна Кардвелл, Біллі Аарон Браун, Марі Дельфіно, Даян Делано

Сюжет:
Раз на 23 роки зловісний крилатий монстр пробуджується від довгого сну, щоб 23 дні насичуватися людською плоттю і страхом своїх жертв. Під кінець останнього дня його кошмарного бенкету, і сьогодні древнє невідоме зло чекає багатий улов - спортивна команда і чарівні вболівальниці, що повертаються з тріумфальної гри. Вони одні в зламаному автобусі на пустельному шосе, де не працюють мобільні телефони і нізвідки чекати допомоги. На заході сонця ненажерливий виплодок пекла почне свою криваву вакханалію. Чи зможе його видобуток дожити до ранку, або ця невразлива тварюка вб'є обійнятих жахом тінейджерів одного за одним?



Тривалість: 01:44:04
Якість: 720p
Відео:
кодек:
розмір кадру: 1280 х 544
бітрейт: 4923 кб/с

Аудіо # 1:
мова: українська
переклад: багатоголосий закадровий
кодек: 5.1
бітрейт: 448 кб/с

Аудіо # 2:
мова: англійська
переклад: оригінал
кодек: 5.1
бітрейт: 640 кб/с

Джерело озвучення:


Субтитри:
мова: англійська
тип: програмні (м'які)
формат: *.srt
720p by braveboy
log

[info]: frame I:1133 Avg QP:14.51 size: 92352
[info]: frame P:31483 Avg QP:16.35 size: 45719
[info]: frame B:117097 Avg QP:18.19 size: 19615
[info]: consecutive B-frames: 1.8% 2.4% 6.0% 19.4% 16.5% 39.9% 14.1%
[info]: mb I I16..4: 12.1% 74.8% 13.0%
[info]: mb P I16..4: 3.5% 22.7% 2.4% P16..4: 28.9% 19.8% 14.0% 0.9% 0.2% skip: 7.6%
[info]: mb B I16..4: 0.4% 3.2% 0.3% B16..8: 37.8% 16.4% 4.8% direct: 7.2% skip:29.7% L0:47.3% L1:41.2% BI:11.5%
[info]: 8x8 transform intra:79.5% inter:52.6%
[info]: coded y,uvDC,uvAC intra: 88.9% 85.6% 65.2% inter: 36.8% 33.3% 9.4%
[info]: i16 v,h,dc,p: 43% 10% 13% 35%
[info]: i8 v,h,dc,ddl,ddr,vr,hd,vl,hu: 7% 7% 10% 10% 14% 13% 14% 11% 14%
[info]: i4 v,h,dc,ddl,ddr,vr,hd,vl,hu: 7% 6% 5% 10% 16% 14% 15% 12% 15%
[info]: i8c dc,h,v,p: 47% 22% 16% 15%
[info]: Weighted P-Frames: Y:14.8% UV:7.5%
[info]: ref P L0: 41.2% 7.8% 20.6% 9.0% 7.6% 5.3% 5.0% 3.0% 0.5% 0.0%
[info]: ref B L0: 62.9% 16.2% 9.0% 5.2% 3.8% 2.0% 0.8%
[info]: ref B L1: 89.9% 10.1%
[info]: kb/s:4920.75
MediaInfo
Video
ID : 1
Format : AVC
Format/Info : Advanced Video Codec
Format profile : [email protected]
Format settings, CABAC : Yes
Format settings, ReFrames : 8 frames
Codec ID : V_MPEG4/ISO/AVC
Duration : 1h 44mn
Bit rate : 4 923 Kbps
Width : 1 280 pixels
Height : 544 pixels
Display aspect ratio : 2.35:1
Frame rate mode : Constant
Frame rate : 23.976 fps
Color space : YUV
Chroma subsampling : 4:2:0
Bit depth : 8 bits
Scan type : Progressive
Bits/(Pixel*Frame) : 0.295
Stream size : 3.49 GiB (80%)
Title : Jeepers Creepers II (2003) 720p by braveboy
Writing library : core 129 r2245 bc13772
Encoding settings : cabac=1 / ref=8 / deblock=1:-3:-3 / analyse=0x3:0x133 / me=umh / subme=9 / psy=1 / psy_rd=0.80:0.00 / mixed_ref=1 / me_range=24 / chroma_me=1 / trellis=1 / 8x8dct=1 / cqm=0 / deadzone=21,11 / fast_pskip=0 / chroma_qp_offset=-2 / threads=6 / lookahead_threads=1 / sliced_threads=0 / nr=0 / decimate=0 / interlaced=0 / bluray_compat=0 / constrained_intra=0 / bframes=6 / b_pyramid=2 / b_adapt=2 / b_bias=0 / direct=1 / weightb=1 / open_gop=0 / weightp=2 / keyint=240 / keyint_min=23 / scenecut=40 / intra_refresh=0 / rc=2pass / mbtree=0 / bitrate=4923 / ratetol=1.0 / qcomp=0.60 / qpmin=10 / qpmax=51 / qpstep=4 / cplxblur=20.0 / qblur=0.5 / ip_ratio=1.40 / pb_ratio=1.30 / aq=1:1.00
Default : Yes
Forced : No

Audio #1
ID : 2
Format : AC-3
Format/Info : Audio Coding 3
Mode extension : CM (complete main)
Format settings, Endianness : Big
Codec ID : A_AC3
Duration : 1h 44mn
Bit rate mode : Constant
Bit rate : 448 Kbps
Channel(s) : 6 channels
Channel positions : Front: L C R, Side: L R, LFE
Sampling rate : 48.0 KHz
Bit depth : 16 bits
Compression mode : Lossy
Stream size : 333 MiB (7%)
Title : 5.1 @ 448 kbps [TET]
Language : Ukrainian
Default : Yes
Forced : No

Audio #2
ID : 3
Format : AC-3
Format/Info : Audio Coding 3
Mode extension : CM (complete main)
Format settings, Endianness : Big
Codec ID : A_AC3
Duration : 1h 44mn
Bit rate mode : Constant
Bit rate : 640 Kbps
Channel(s) : 6 channels
Channel positions : Front: L C R, Side: L R, LFE
Sampling rate : 48.0 KHz
Bit depth : 16 bits
Compression mode : Lossy
Stream size : 476 MiB (11%)
Title : 5.1 @ 640 kbps
Language : English
Default : No
Forced : No

Text
ID : 4
Format : UTF-8
Codec ID : S_TEXT/UTF8
Codec ID/Info : UTF-8 Plain Text
Title : Full
Language : English
Default : No
Forced : No

Menu
00:00:00.000 : en:00:00:00.000
00:04:57.047 : en:00:04:57.047
00:06:16.167 : en:00:06:16.167
00:08:02.816 : en:00:08:02.816
00:12:59.570 : en:00:12:59.570
00:15:24.382 : en:00:15:24.382
00:18:03.582 : en:00:18:03.582
00:20:42.450 : en:00:20:42.450
00:23:17.021 : en:00:23:17.021
00:26:26.877 : en:00:26:26.877
00:28:59.988 : en:00:28:59.988
00:30:46.845 : en:00:30:46.845
00:32:29.197 : en:00:32:29.197
00:35:43.350 : en:00:35:43.350
00:39:45.842 : en:00:39:45.842
00:42:34.719 : en:00:42:34.719
00:45:32.396 : en:00:45:32.396
00:48:45.339 : en:00:48:45.339
00:50:50.631 : en:00:50:50.631
00:55:25.739 : en:00:55:25.739
00:57:42.834 : en:00:57:42.834
01:00:07.395 : en:01:00:07.395
01:05:35.431 : en:01:05:35.431
01:09:30.958 : en:01:09:30.958
01:11:22.945 : en:01:11:22.945
01:13:01.544 : en:01:13:01.544
01:16:24.872 : en:01:16:24.872
01:20:44.923 : en:01:20:44.923
01:24:45.247 : en:01:24:45.247
01:29:41.418 : en:01:29:41.418
01:33:48.748 : en:01:33:48.748
01:38:02.752 : en:01:38:02.752
Скріншоти
Особиста оцінка: 10 - без зайвих вагань рекомендую всім!



Срібний реліз (на рейтинг впливає 50% завантаженого)
 Трекер:    Зареєстрований   

Завантажити / скачати фільм українською



відео для новачків



 Зареєстрований:   2013-11-14 06:38
 Розмір:   4.37 GB 
 Оцінка фільму:   9.8/10 (Голосів: 9)
   
boroznaya 
VIP


З нами з: 02.11.12
Востаннє: 04.12.16
Повідомлень: 1868

2014-12-15 21:20  
Цікавий сиквел, безумовно вартий уваги, трішки слабший, але гідний вважатись продовженням. Мені сподобалсь, раджу всім! Спасибі релізеру! Уже в колекції!

Додано через 1 хвилину 14 секунд:

До речі, обіцяли 3-тю частину, з нетерпінням чекаю!!!

Ваш часовий пояс: GMT + 2 Години

Нова тема   Відповісти