Завантажити та скачати торренти українською


VA - Найкращі українські народні пісні [Золота колекція] (2008) [APE] | Folk

Нові коментарі

Нова тема   Відповісти
Автор Повідомлення
civ 
VIP


З нами з: 16.02.11
Востаннє: 02.12.16
Повідомлень: 428

2013-11-13 22:38  
VA - Найкращі українські народні пісні [Золота колекція] (2008) [APE] | Folk

VA - Найкращі українські народні пісні [Золота колекція] (2008) [APE] | Folk


Стиль: Folk
Країна, місто: Україна
Видавець: Астра Рекордс

Пісні:
    01. Розпрягайте, хлопці, коні
    Державна заслужена академічна капела бандуристів України
    02. Ой, у полі криниченька
    Любов Павленко, Поліський хор «Льонок»
    03. Ой, у вишневому садочку
    Ансамбль «Чарівна»
    04. Несе Галя воду
    Тріо Маренич
    05. Била мене мати
    ВІА «Візерунки шляхів»
    06. Ой, на горі калина
    Діана і Василь Матющенки
    07. Ой, на горі два дубки
    Раїса Кириченко
    08. Ой, чорна я си, чорна
    Хор Новоазовського БК
    09. Ой, дівчино, шумить гай
    Людмила Маковецька, Олександр Трофимчук
    10. Туман яром
    Державний український народний хор ім. Г.Верьовки
    11. Їхав козак за Дунай
    Володимир Зарков, Олександр Таранець
    12. Ніч яка місячна
    Костянтин Огнєвий
    13. Чорнії брови, карії очі
    Валерій Буймістер
    14. Місяць на небі
    Світлана Криворучко, Володимир Миркотан
    15. О, милий мій
    Ніна Матвієнко
    16. Цвіте терен
    Ніна Матвієнко, Валентина Хиценко, Хор ім. Г.Верьовки
    17. Зеленеє жито, зелене
    Тріо «Либідь»
    18. Сусідка
    Державна заслужена академічна капела бандуристів України
    19. Якби мені сивий кінь
    Віталій Поліщук, Геннадій Позняков, Поліський хор «Льонок»
    20. Як служив же у пана
    Фольклорний ансамбль «Червона калина»
    21. Ти казала, прийди, прийди
    Державна заслужена академічна капела бандуристів України
    22. Горіла сосна
    Олена Поляк, Федір Копинець, Закарпатський народний хор
    23. Гречаники
    Фольклорний ансамбль с. Дружба Бучацького р-ну Тернопільської обл.
    24. А мій милий чорнобривий
    Черкаський український народний хор
    25. А я чорнява
    Жіноча група Черкаського українського народного хору
    26. Ой, чий то кінь стоїть
    Квартет «Явір»
    27. Гей, нуте хлопці
    Микола Кондратюк
    28. Ой, Марічко, чичері
    Державна заслужена академічна капела бандуристів України
    29. Щедрик
    Хор Київської державної консерваторії

Тривалість: 01:19:56
Мова: українська
Аудіо-кодек: APE
Бітрейт: 668 кб/с
Джерело: власний ріп
Тип ріпу: image + cue + обкладинки
EAC Log

Exact Audio Copy V1.0 beta 3 from 29. August 2011

EAC extraction logfile from 7. March 2013, 19:57

Various / Найкращі українські народні пісні [Золота колекція]

Used drive : MATSHITADVD-RAM UJ8C1 Adapter: 1 ID: 0

Read mode : Secure
Utilize accurate stream : Yes
Defeat audio cache : Yes
Make use of C2 pointers : No

Read offset correction : 6
Overread into Lead-In and Lead-Out : No
Fill up missing offset samples with silence : Yes
Delete leading and trailing silent blocks : No
Null samples used in CRC calculations : Yes
Used interface : Native Win32 interface for Win NT & 2000

Used output format : Internal WAV Routines
Sample format : 44.100 Hz; 16 Bit; Stereo

TOC of the extracted CD

Track | Start | Length | Start sector | End sector
---------------------------------------------------------
1 | 0:00.00 | 3:14.18 | 0 | 14567
2 | 3:14.18 | 2:59.47 | 14568 | 28039
3 | 6:13.65 | 1:48.08 | 28040 | 36147
4 | 8:01.73 | 3:47.33 | 36148 | 53205
5 | 11:49.31 | 2:58.07 | 53206 | 66562
6 | 14:47.38 | 2:22.13 | 66563 | 77225
7 | 17:09.51 | 2:22.04 | 77226 | 87879
8 | 19:31.55 | 1:44.20 | 87880 | 95699
9 | 21:16.00 | 2:10.34 | 95700 | 105483
10 | 23:26.34 | 4:26.27 | 105484 | 125460
11 | 27:52.61 | 2:44.62 | 125461 | 137822
12 | 30:37.48 | 3:14.34 | 137823 | 152406
13 | 33:52.07 | 3:41.44 | 152407 | 169025
14 | 37:33.51 | 3:12.18 | 169026 | 183443
15 | 40:45.69 | 2:38.42 | 183444 | 195335
16 | 43:24.36 | 5:12.74 | 195336 | 218809
17 | 48:37.35 | 3:22.37 | 218810 | 233996
18 | 51:59.72 | 1:51.65 | 233997 | 242386
19 | 53:51.62 | 2:29.61 | 242387 | 253622
20 | 56:21.48 | 2:51.41 | 253623 | 266488
21 | 59:13.14 | 1:23.37 | 266489 | 272750
22 | 60:36.51 | 2:25.40 | 272751 | 283665
23 | 63:02.16 | 2:52.51 | 283666 | 296616
24 | 65:54.67 | 3:19.25 | 296617 | 311566
25 | 69:14.17 | 1:56.65 | 311567 | 320331
26 | 71:11.07 | 3:23.67 | 320332 | 335623
27 | 74:34.74 | 1:34.25 | 335624 | 342698
28 | 76:09.24 | 2:16.65 | 342699 | 352963
29 | 78:26.14 | 1:29.48 | 352964 | 359686

Range status and errors

Selected range

Filename C:\Music\Various - Найкращі українські народні пісні [Золота колекція] (2008)\Various - Найкращі українські народні пісні [Золота колекція].wav

Peak level 98.0 %
Extraction speed 2.4 X
Range quality 100.0 %
Copy CRC 8A01AA0C
Copy OK

No errors occurred

End of status report
Audiochecker

fooCDtect - foobar2000 + auCDtect, baralgin.

auCDtect: CD records authenticity detector, version 0.8.2
Copyright (c) 2004 Oleg Berngardt. All rights reserved.
Copyright (c) 2004 Alexander Djourik. All rights reserved.

mode: 0

===========================================
Track: 01. Розпрягайте, хлопці, коні
Quality: CDDA 100%
===========================================
Track: 02. Ой, у полі криниченька
Quality: CDDA 100%
===========================================
Track: 03. Ой, у вишневому садочку
Quality: CDDA 100%
===========================================
Track: 04. Несе Галя воду
Quality: CDDA 100%
===========================================
Track: 05. Била мене мати
Quality: CDDA 100%
===========================================
Track: 06. Ой, на горі калина
Quality: CDDA 100%
===========================================
Track: 07. Ой, на горі два дубки
Quality: CDDA 99%
===========================================
Track: 08. Ой, чорна я си, чорна
Quality: CDDA 100%
===========================================
Track: 09. Ой, дівчино, шумить гай
Quality: CDDA 100%
===========================================
Track: 10. Туман яром
Quality: CDDA 100%
===========================================
Track: 11. Їхав козак за Дунай
Quality: CDDA 100%
===========================================
Track: 12. Ніч яка місячна
Quality: CDDA 100%
===========================================
Track: 13. Чорнії брови, карії очі
Quality: CDDA 100%
===========================================
Track: 14. Місяць на небі
Quality: CDDA 100%
===========================================
Track: 15. О, милий мій
Quality: CDDA 100%
===========================================
Track: 16. Цвіте терен
Quality: CDDA 100%
===========================================
Track: 17. Зеленеє жито, зелене
Quality: CDDA 100%
===========================================
Track: 18. Сусідка
Quality: CDDA 99%
===========================================
Track: 19. Якби мені сивий кінь
Quality: CDDA 100%
===========================================
Track: 20. Як служив же у пана
Quality: CDDA 100%
===========================================
Track: 21. Ти казала, прийди, прийди
Quality: CDDA 100%
===========================================
Track: 22. Горіла сосна
Quality: CDDA 99%
===========================================
Track: 23. Гречаники
Quality: CDDA 100%
===========================================
Track: 24. А мій милий чорнобривий
Quality: CDDA 100%
===========================================
Track: 25. А я чорнява
Quality: CDDA 100%
===========================================
Track: 26. Ой, чий то кінь стоїть
Quality: CDDA 100%
===========================================
Track: 27. Гей, нуте хлопці
Quality: MPEG 80%
===========================================
Track: 28. Ой, Марічко, чичері
Quality: CDDA 100%
===========================================
Track: 29. Щедрик
Quality: CDDA 92%
===========================================
Додаткова інформація:
В межах "Золотої колекції" започатковано свого роду сувенірну міні-серію – її і презентує чергова збірка, "Найкращі українські народні пісні". Диски цієї міні-серії вирізняються зовнішнім оформленням – Ви легко зможете виокремити їх на загальному тлі. Ну а стосовно змісту – дивіться самі: Державна капела бандуристів України, В. Буймістер, Р. Кириченко, Закарпатський народний хор, поліський хор "Льонок", і т.д. Як завжди, тут Ви знайдете записи з фондів Національної радіокомпанії України – і, як завжди, частина з цих записів є рідкістю. З іншого ж боку – тут представлено справжню класику "золотих часів" української естради. Тож, гадаємо, додаткових пояснень не потрібно – ці збірки однозначно заслуговують на увагу. Особливо ж – якщо Ви збираєтесь зробити комусь легкий, але цікавий подарунок.


Умка




Якщо Ви справді бажаєте підтримати українське - після прослуховування, якщо музика вам сподобалась, придбайте ліцензійний диск. Підтримаймо вітчизняних виконавців!


Срібний реліз (на рейтинг впливає 50% завантаженого)
 Трекер:    Зареєстрований   

Завантажити / скачати українську музику



відео для новачків



 Зареєстрований:   2013-11-13 22:38
 Розмір:   405 MB 
 Оцінка музики:   10/10 (Голосів: 19)
   
K2 
Поважний учасник


З нами з: 02.11.08
Востаннє: 02.12.16
Повідомлень: 158

2013-12-03 00:20  
Низький уклін за музику. Намагатимусь купити диск.
Ваш часовий пояс: GMT + 2 Години

Нова тема   Відповісти