Завантажити та скачати торренти українською


Ще одна історія про Попелюшку / Another Cinderella Story (2008) 1080p Ukr/Eng | Sub Eng

Нові коментарі

Нова тема   Відповісти
Автор Повідомлення
Anonymous 







2013-11-11 20:49  
Ще одна історія про Попелюшку / Another Cinderella Story (2008) 1080p Ukr/Eng | Sub Eng



Жанр: мюзикл, мелодрама, комедія
Країна: США, Канада



Кінокомпанія: Warner Premiere, CS2 Films, Dylan Sellers Productions
Режисер: Деймон Сантостефано / Damon Santostefano
Актори: Селена Ґомез / Selena Gomez, Ендрю Сілі / Andrew Seeley, Джейн Лінч / Jane Lynch, Кетрін Ізабелль / Katharine Isabelle, Емілі Перкінс / Emily Perkins, Джессіка Паркер Кеннеді / Jessica Parker Kennedy, Маркус Т. Полк / Marcus T. Paulk та інші

Сюжет:
У цьому фільмі Селен Ґомез грає Мері, ця сучасна Попелюшка доповнена танцювальним взуттям замість кришталевих черевичків. Ендрю Сілі грає Джої, прекрасного Принца, що шукає дівчину своєї мрії. Чи може Мері бути нею?



Рейтинг MPAA: PG - рекомендується присутність батьків
Вікова категорія: 0+


Тривалість: 01:31:54
Якість: 1080p
Відео:
кодек:
розмір кадру: 1920x1080
бітрейт: 11.7 Mbps

Аудіо # 1:
мова: українська
переклад: багатоголосий закадровий
кодек: 2.0
бітрейт: 192 кб/с

Аудіо # 2:
мова: англійська
переклад: оригінал
кодек: 5.1
бітрейт: 640 кб/с

Субтитри:
мова: англійська
тип: програмні (м'які)
формат: *.srt
MediaInfo
Код:
General
Unique ID                                : 239415356815121748834671396146927407273 (0xB41DB8719DA618DFB5DA47C9897490A9)
Complete name                            : Another Cinderella Story (2008) [Ukr,Eng sub.Eng] 1080p [Hurtom].mkv
Format                                   : Matroska
Format version                           : Version 4 / Version 2
File size                                : 8.06 GiB
Duration                                 : 1h 31mn
Overall bit rate                         : 12.6 Mbps
Movie name                               : Ще одна історія про Попелюшку / Another Cinderella Story (2008) 1080p [Hurtom]
Encoded date                             : UTC 2013-11-11 10:47:15
Writing application                      : mkvmerge v6.5.0 ('Isn't she lovely') built on Oct 20 2013 12:50:05
Writing library                          : libebml v1.3.0 + libmatroska v1.4.1

Video
ID                                       : 1
Format                                   : AVC
Format/Info                              : Advanced Video Codec
Format profile                           : [email protected]
Format settings, CABAC                   : Yes
Format settings, ReFrames                : 4 frames
Codec ID                                 : V_MPEG4/ISO/AVC
Duration                                 : 1h 31mn
Bit rate                                 : 11.7 Mbps
Width                                    : 1 920 pixels
Height                                   : 1 080 pixels
Display aspect ratio                     : 16:9
Frame rate mode                          : Constant
Frame rate                               : 23.976 fps
Color space                              : YUV
Chroma subsampling                       : 4:2:0
Bit depth                                : 8 bits
Scan type                                : Progressive
Bits/(Pixel*Frame)                       : 0.236
Stream size                              : 7.37 GiB (91%)
Title                                    : Ще одна історія про Попелюшку / Another Cinderella Story / Еще одна история о Золушке (2008) 1080p [CtrlHD]
Writing library                          : core 65 r1046M 71d34b4
Encoding settings                        : cabac=1 / ref=4 / deblock=1:-2:-2 / analyse=0x3:0x113 / me=umh / subme=9 / psy_rd=1.2:0.0 / mixed_ref=1 / me_range=32 / chroma_me=1 / trellis=2 / 8x8dct=1 / cqm=0 / deadzone=21,11 / chroma_qp_offset=-2 / threads=6 / nr=0 / decimate=0 / mbaff=0 / bframes=3 / b_pyramid=0 / b_adapt=2 / b_bias=0 / direct=3 / wpredb=1 / keyint=250 / keyint_min=25 / scenecut=40(pre) / rc=2pass / bitrate=11730 / ratetol=1.0 / qcomp=0.60 / qpmin=10 / qpmax=51 / qpstep=4 / cplxblur=20.0 / qblur=0.5 / vbv_maxrate=50000 / vbv_bufsize=50000 / ip_ratio=1.40 / pb_ratio=1.30 / aq=1:1.00
Language                                 : English
Default                                  : Yes
Forced                                   : No

Audio #1
ID                                       : 2
Format                                   : AC-3
Format/Info                              : Audio Coding 3
Mode extension                           : CM (complete main)
Format settings, Endianness              : Big
Codec ID                                 : A_AC3
Duration                                 : 1h 31mn
Bit rate mode                            : Constant
Bit rate                                 : 192 Kbps
Channel count                            : 2 channels
Channel positions                        : Front: L R
Sampling rate                            : 48.0 KHz
Bit depth                                : 16 bits
Compression mode                         : Lossy
Stream size                              : 126 MiB (2%)
Title                                    : MVO [K1] 2.0 192 kbps [Hurtom-patriot2305]
Language                                 : Ukrainian
Default                                  : Yes
Forced                                   : No

Audio #2
ID                                       : 3
Format                                   : AC-3
Format/Info                              : Audio Coding 3
Mode extension                           : CM (complete main)
Format settings, Endianness              : Big
Codec ID                                 : A_AC3
Duration                                 : 1h 31mn
Bit rate mode                            : Constant
Bit rate                                 : 640 Kbps
Channel count                            : 6 channels
Channel positions                        : Front: L C R, Side: L R, LFE
Sampling rate                            : 48.0 KHz
Bit depth                                : 16 bits
Compression mode                         : Lossy
Stream size                              : 421 MiB (5%)
Title                                    : Original 5.1 640 kbps
Language                                 : English
Default                                  : No
Forced                                   : No

Text
ID                                       : 4
Format                                   : UTF-8
Codec ID                                 : S_TEXT/UTF8
Codec ID/Info                            : UTF-8 Plain Text
Title                                    : Eng full
Language                                 : English
Default                                  : No
Forced                                   : No




Джерела та подяки:
ріп відео, оригінальні звук та субтитри - CtrlHD; українська доріжка - patriot2305 - зведення, POMEO - запис з ТБ (обоє - Гуртом).


ЗАЛИШАЙТЕСЬ ЯКОМОГА ДОВШЕ НА РОЗДАЧІ!

СКАЧАВ САМ - ДАЙ СКАЧАТИ ІНШИМ


 Трекер:    Зареєстрований   

Завантажити / скачати фільм українською



відео для новачків



 Зареєстрований:   2013-11-11 20:49
 Розмір:   8.06 GB 
 Оцінка фільму:   4.9/10 (Голосів: 18)
   
Інші релізи
Ваш часовий пояс: GMT + 2 Години

Нова тема   Відповісти