Завантажити та скачати торренти українською


Місце Злочину: Маямі (Сезон 10) / CSI: Miami (Season 10) (2011) AVC Ukr/Eng

Нові коментарі

Нова тема   Відповісти
Автор Повідомлення
Anonymous 







2013-11-10 14:07  
Місце Злочину: Маямі (Сезон 10) / CSI: Miami (Season 10) (2011) AVC Ukr/Eng

Місце Злочину: Маямі (Сезон 10) / CSI: Miami (Season 10) (2011) AVC Ukr/Eng


Жанр: детектив, кримінальний, драма
Країна: США


Кінокомпанія / телеканал: Alliance Atlantis Communications, American Travelers, The, CBS Paramount Network Television
Режисер: Сем Хіл
Актори/ролі озвучують: Девід Карузо, Емілі Проктер, Адам Родрігес, Кенді Олександр, Рекс Лінн, Джонатан Того, Єва Ла Ру, Боті Блісс

Сюжет:
Лагідне море, безхмарне небо, яскраве сонце, білий пісок, шелест пальм і крики чайок ... Це - рай на землі.

Це - Маямі. Але навіть тут часом трапляються злочини, що просто вражають своєю жорстокістю. І навіть тут поліція часом безсила. Саме тому на території одного з найгарніших куточків планети працює неперевершена команда професіоналів-криміналістів на чолі з фахівцем з розкриття вбивств Гораціо Кейном. Вони молоді, привабливі та розумні, але головне - вони краще розслідують навіть в самих заплутаних злочинах. Разом вони наче з небуття дістають докази і аналізують їх за допомогою найсучасніших методів.
Разом вони карають тих, хто здійснює дивні і страшні злочини. Разом вони шукають розгадку і завжди знаходять її. Тому що вони - найкращі у своїй справі.


Тривалість: 1 серія: 42 хвилини (цілком серій: 19)
Перелік серій
CSI: Miami. Season 10, Episode 1. Countermeasures
CSI: Miami. Season 10, Episode 2. Stiff
CSI: Miami. Season 10, Episode 3. Blown Away
CSI: Miami. Season 10, Episode 4. Look Who's Taunting
CSI: Miami. Season 10, Episode 5. Killer Regrets
CSI: Miami. Season 10, Episode 6. By the Book
CSI: Miami. Season 10, Episode 7. Sinner Takes All
CSI: Miami. Season 10, Episode 8. Dead Ringer
CSI: Miami. Season 10, Episode 9. A Few Dead Men
CSI: Miami. Season 10, Episode 10. Long Gone
CSI: Miami. Season 10, Episode 11. Crowned
CSI: Miami. Season 10, Episode 12. Friendly Fire
CSI: Miami. Season 10, Episode 13. Terminal Velocity
CSI: Miami. Season 10, Episode 14. Last Straw
CSI: Miami. Season 10, Episode 15. No Good Deed
CSI: Miami. Season 10, Episode 16. Rest in Pieces
CSI: Miami. Season 10, Episode 17. At Risk
CSI: Miami. Season 10, Episode 18. Law & Disorder
CSI: Miami. Season 10, Episode 19. Habeas Corpse
Якість:
Відео:
кодек:
розмір кадру: 720 х 404
бітрейт: ~1300 кб/с

Аудіо # 1:
мова: українська
переклад: двоголосий закадровий
кодек: 2.0
бітрейт: 192 кб/с

Аудіо # 2:
мова: англійська
переклад: оригінал
кодек: 2.0
бітрейт: 192 кб/с

Джерело озвучення:


Скріншоти



MediaInfo
General
Unique ID : 171075021120101081713290102254994638081 (0x80B3D9C058175C03BDC6E291ECA2C501)
Complete name : ***\csi.miami.s10..Ukr.Eng\csi.miami.s10e01..Ukr.Eng.mkv
Format : Matroska
Format version : Version 2
File size : 507 MiB
Duration : 41mn 40s
Overall bit rate : 1 701 Kbps
Movie name : CSI: Miami. Season 10, Episode 1. Countermeasures
Encoded date : UTC 2013-10-08 23:29:48
Writing application : mkvmerge v5.8.0 ('No Sleep / Pillow') built on Sep 2 2012 15:37:04
Writing library : libebml v1.2.3 + libmatroska v1.3.0

Video
ID : 1
Format : AVC
Format/Info : Advanced Video Codec
Format profile : [email protected]
Format settings, CABAC : Yes
Format settings, ReFrames : 5 frames
Codec ID : V_MPEG4/ISO/AVC
Duration : 41mn 40s
Bit rate : 1 283 Kbps
Width : 720 pixels
Height : 404 pixels
Display aspect ratio : 16:9
Frame rate mode : Constant
Frame rate : 25.000 fps
Color space : YUV
Chroma subsampling : 4:2:0
Bit depth : 8 bits
Scan type : Progressive
Bits/(Pixel*Frame) : 0.176
Stream size : 382 MiB (75%)
Writing library : core 138 r2358 9e941d1
Encoding settings : cabac=1 / ref=5 / deblock=1:0:0 / analyse=0x3:0x113 / me=umh / subme=8 / psy=1 / psy_rd=1.00:0.00 / mixed_ref=1 / me_range=16 / chroma_me=1 / trellis=1 / 8x8dct=1 / cqm=0 / deadzone=21,11 / fast_pskip=1 / chroma_qp_offset=-2 / threads=18 / lookahead_threads=3 / sliced_threads=0 / nr=0 / decimate=1 / interlaced=0 / bluray_compat=0 / constrained_intra=0 / bframes=3 / b_pyramid=2 / b_adapt=2 / b_bias=0 / direct=3 / weightb=1 / open_gop=0 / weightp=2 / keyint=250 / keyint_min=25 / scenecut=40 / intra_refresh=0 / rc_lookahead=50 / rc=crf / mbtree=1 / crf=19.0 / qcomp=0.60 / qpmin=0 / qpmax=69 / qpstep=4 / ip_ratio=1.40 / aq=1:1.00
Language : English
Default : Yes
Forced : No
Matrix coefficients : BT.709

Audio #1
ID : 2
Format : AC-3
Format/Info : Audio Coding 3
Mode extension : CM (complete main)
Format settings, Endianness : Big
Codec ID : A_AC3
Duration : 41mn 40s
Bit rate mode : Constant
Bit rate : 192 Kbps
Channel(s) : 2 channels
Channel positions : Front: L R
Sampling rate : 48.0 KHz
Bit depth : 16 bits
Compression mode : Lossy
Stream size : 57.2 MiB (11%)
Language : Ukrainian
Default : Yes
Forced : No

Audio #2
ID : 3
Format : AC-3
Format/Info : Audio Coding 3
Mode extension : CM (complete main)
Format settings, Endianness : Big
Codec ID : A_AC3
Duration : 41mn 40s
Bit rate mode : Constant
Bit rate : 192 Kbps
Channel(s) : 2 channels
Channel positions : Front: L R
Sampling rate : 48.0 KHz
Bit depth : 16 bits
Compression mode : Lossy
Stream size : 57.2 MiB (11%)
Language : English
Default : No
Forced : No
Джерело:
Особиста оцінка: 8 - мені сподобалося


Бронзовий реліз (на рейтинг впливає 75% завантаженого)
 Трекер:    Зареєстрований   

Завантажити / скачати серіал українською



відео для новачків



 Зареєстрований:   2013-11-10 14:07
 Розмір:   8.66 GB 
 Оцінка серіалу:   9.9/10 (Голосів: 27)
   
BaNDeRSTaDT88 
Новенький


З нами з: 21.01.12
Востаннє: 03.12.16
Повідомлень: 11

2013-12-21 15:44  
Змініть назву, рік 2013...
Musia 
Новенький


З нами з: 15.02.12
Востаннє: 01.12.16
Повідомлень: 2

2013-12-30 16:08  
Для чого, якщо цей сезон вийшов у 2011)
CrimsonAndrew 
Свій


З нами з: 02.04.13
Востаннє: 02.12.16
Повідомлень: 96

2016-02-13 10:19  
Хто б переробив у 720 усі інші сезони. Я б навіть міг би заплатити
Ваш часовий пояс: GMT + 2 Години

Нова тема   Відповісти