Завантажити та скачати торренти українською


Штовхачі / Clockers (1995) 720p Ukr/Eng | Sub Eng

Нові коментарі

Нова тема   Відповісти
Автор Повідомлення
Anonymous 







2013-11-09 18:09  
Штовхачі / Clockers (1995) 720p Ukr/Eng | Sub Eng

Штовхачі / Clockers (1995) 720p Ukr/Eng | Sub Eng


Жанр: драма, кримінальний
Країна: США



Кінокомпанія: Universal Pictures, 40 Acres & A Mule Filmworks
Режисер: Спайк Лі / Spike Lee
Актори: Гарві Кейтель / Harvey Keitel, Джон Туртурро / John Turturro, Делрой Ліндо / Delroy Lindo, Мехі Файфер / Mekhi Phifer, Ісая Вашингтон / Isaiah Washington, Кіт Девід / Keith David та інші

Сюжет:
Страйк - хлопець працьовитий і відповідальний. За професією він - «штовхач», тобто та незамінна людина, яка продасть вам будь-які наркотики в будь-який час доби. Але «штовхати» наркоту, як відомо, - справа небезпечна і невдячна. Доводиться весь час бути напоготові в очікуванні поліцейських рейдів...



Рейтинг MPAA: R - особам до 17 років обов'язкова присутність батьків або дорослого опікуна
Вікова категорія: 18+


Тривалість: 02:08:20
Якість: 720p
Відео:
кодек:
розмір кадру: 1280x694
бітрейт: 9000 кб/с

Аудіо # 1:
мова: українська
переклад: багатоголосий закадровий
кодек: 2.0
бітрейт: 192 кб/с

Аудіо # 2:
мова: англійська
переклад: оригінал
кодек: 5.1
бітрейт: 448 кб/с

Субтитри:
мова: англійська
тип: програмні (м'які)
формат: *.srt

Збережено оригінальні розділи, як на Blu-ray.
MediaInfo
General
Unique ID : 192003925039337480278357662951372079099 (0x90729C61CCE0C9059C9D3947E971BFFB)
Complete name : Clockers (1995) [Ukr,Eng sub.Eng] 720p [Hurtom].mkv
Format : Matroska
Format version : Version 4 / Version 2
File size : 8.64 GiB
Duration : 2h 8mn
Overall bit rate : 9 637 Kbps
Movie name : Штовхачі / Clockers (1995) 720p [Hurtom]
Encoded date : UTC 2013-11-08 07:22:28
Writing application : mkvmerge v6.5.0 ('Isn't she lovely') built on Oct 20 2013 12:50:05
Writing library : libebml v1.3.0 + libmatroska v1.4.1

Video
ID : 1
Format : AVC
Format/Info : Advanced Video Codec
Format profile : [email protected]
Format settings, CABAC : Yes
Format settings, ReFrames : 8 frames
Codec ID : V_MPEG4/ISO/AVC
Duration : 2h 8mn
Bit rate : 9 000 Kbps
Width : 1 280 pixels
Height : 694 pixels
Display aspect ratio : 1.85:1
Frame rate mode : Constant
Frame rate : 23.976 fps
Color space : YUV
Chroma subsampling : 4:2:0
Bit depth : 8 bits
Scan type : Progressive
Bits/(Pixel*Frame) : 0.423
Stream size : 7.89 GiB (91%)
Title : Штовхачі / Clockers / Клокеры / Толкачи (1995) 720p [MediaClub-kasp]
Writing library : core 130 r2273 b3065e6
Encoding settings : cabac=1 / ref=8 / deblock=1:-3:-3 / analyse=0x3:0x133 / me=umh / subme=11 / psy=1 / psy_rd=1.00:0.20 / mixed_ref=1 / me_range=48 / chroma_me=1 / trellis=2 / 8x8dct=1 / cqm=0 / deadzone=21,11 / fast_pskip=0 / chroma_qp_offset=-3 / threads=12 / lookahead_threads=2 / sliced_threads=0 / nr=0 / decimate=0 / interlaced=0 / bluray_compat=0 / constrained_intra=0 / bframes=8 / b_pyramid=2 / b_adapt=2 / b_bias=0 / direct=3 / weightb=1 / open_gop=0 / weightp=2 / keyint=240 / keyint_min=23 / scenecut=40 / intra_refresh=0 / rc=2pass / mbtree=0 / bitrate=9000 / ratetol=1.0 / qcomp=0.60 / qpmin=0 / qpmax=69 / qpstep=4 / cplxblur=20.0 / qblur=0.5 / ip_ratio=1.40 / pb_ratio=1.30 / aq=1:1.00
Language : English
Default : Yes
Forced : Yes

Audio #1
ID : 2
Format : AC-3
Format/Info : Audio Coding 3
Mode extension : CM (complete main)
Format settings, Endianness : Big
Codec ID : A_AC3
Duration : 2h 8mn
Bit rate mode : Constant
Bit rate : 192 Kbps
Channel count : 2 channels
Channel positions : Front: L R
Sampling rate : 48.0 KHz
Bit depth : 16 bits
Compression mode : Lossy
Delay relative to video : 25ms
Stream size : 176 MiB (2%)
Title : MVO [NLO TV] 2.0 192 kbps [Hurtom-patriot2305]
Language : Ukrainian
Default : Yes
Forced : No

Audio #2
ID : 3
Format : AC-3
Format/Info : Audio Coding 3
Mode extension : CM (complete main)
Format settings, Endianness : Big
Codec ID : A_AC3
Duration : 2h 8mn
Bit rate mode : Constant
Bit rate : 448 Kbps
Channel count : 6 channels
Channel positions : Front: L C R, Side: L R, LFE
Sampling rate : 48.0 KHz
Bit depth : 16 bits
Compression mode : Lossy
Stream size : 411 MiB (5%)
Title : Original 5.1 448 kbps
Language : English
Default : No
Forced : No

Text
ID : 4
Format : UTF-8
Codec ID : S_TEXT/UTF8
Codec ID/Info : UTF-8 Plain Text
Language : English
Default : No
Forced : No

Menu
00:00:00.000 : en:Chapter 01
00:03:52.023 : en:Chapter 02
00:17:54.114 : en:Chapter 03
00:27:55.131 : en:Chapter 04
00:29:34.314 : en:Chapter 05
00:32:58.309 : en:Chapter 06
00:43:30.524 : en:Chapter 07
00:47:59.501 : en:Chapter 08
00:51:36.343 : en:Chapter 09
00:56:35.100 : en:Chapter 10
01:19:01.570 : en:Chapter 11
01:27:11.434 : en:Chapter 12
01:34:18.903 : en:Chapter 13
01:42:31.353 : en:Chapter 14
01:50:07.350 : en:Chapter 15
01:56:57.010 : en:Chapter 16
01:58:26.265 : en:Chapter 17
02:04:21.996 : en:Chapter 18




Джерела та подяки: &
ріп відео, оригінальні звук та субтитри - kaspr (MediaClub); українська доріжка - patriot2305 - зведення, MAKAPOHHIK - запис з ТБ (обоє - Гуртом).


ЗАЛИШАЙТЕСЬ ЯКОМОГА ДОВШЕ НА РОЗДАЧІ!

СКАЧАВ САМ - ДАЙ СКАЧАТИ ІНШИМ


Срібний реліз (на рейтинг впливає 50% завантаженого)
 Трекер:    Зареєстрований   

Завантажити / скачати фільм українською



відео для новачків



 Зареєстрований:   2013-11-09 18:09
 Розмір:   8.64 GB 
 Оцінка фільму:   2.5/10 (Голосів: 12)
   
Інші релізи
   Штовхачі / Clockers (1995) patriot2305  3 / 0   1.47 GB   2013-07-05 07:17 
kmr 
Поважний учасник


З нами з: 18.04.10
Востаннє: 06.12.16
Повідомлень: 150

2013-11-09 18:30  
Щось забагато важить фільм..!
Anonymous 







2013-11-09 18:46  
Джерело доволі зернисте, очевидно ріпер не пошкодував бітрейта, щоб компенсувати це. Квантів, нажаль не наведено, але думаю іншого виходу без погіршення якості не було.
Ваш часовий пояс: GMT + 2 Години

Нова тема   Відповісти