Завантажити та скачати торренти українською


Дві дівчини без копійчини (Сезон 2, Серії 1-12) / 2 Broke Girls (Season 2, Episodes 1-12) (2012) AVC Ukr/Eng

Нові коментарі

Нова тема   Відповісти
Останній раз роздавалося you_ (2016-12-05)
Автор Повідомлення
Anonymous 







2013-11-08 13:39  
Дві дівчини без копійчини (Сезон 2, Серії 1-12) / 2 Broke Girls (Season 2, Episodes 1-12) (2012) AVC Ukr/Eng

Дві дівчини без копійчини (Сезон 2, Серії 1-12) / 2 Broke Girls (Season 2, Episodes 1-12) (2012) AVC Ukr/Eng


Жанр: комедія
Країна: США


Кінокомпанія / телеканал: Michael Patrick King Productions, Warner Bros. Television
Режисер: Майкл Патрік Кінг
Актори/ролі озвучують: Кет Деннінгс (Макс), Бет Берс (Керолайн), Джонатан Кіт (Олег), Гаррет Морріс (Ерл), Метью Мой (Хан Лі).

Сюжет:
Керолайн і Макс точно знають, що настане час, і вони відкриють свій власний бізнес, стануть багатими і незалежними. Але поки що це лише рожеві мрії. У своїй суворій реальності вони працюють офіціантками в дешевій закусочній, збирають гроші, і все одно радіють життю.
Сколочувати свій мізерний капітал дівчатам доводиться в доволі різношерстому колективі. Новоявленний хазяїн закладу, надмірно велелюбний російський кухар, 75-річний крутий перець, який працює на касі... Усі ці яскраві персонажі лише погіршують ситуацію. Але Керолайн і Макс готові за будь-яку ціну досягти своєї мети.


Тривалість: 1 серія: 22 хвилини (цілком серій: 12)
Перелік серій
2 Broke Girls. Season 2, Episode 1. And the Hidden Stash
2 Broke Girls. Season 2, Episode 2. And the Pearl Necklace
2 Broke Girls. Season 2, Episode 3. And the Hold-Up
2 Broke Girls. Season 2, Episode 4. And the Cupcake War
2 Broke Girls. Season 2, Episode 5. And the Pre-Approved Credit Card
2 Broke Girls. Season 2, Episode 6. And the Candy Manwich
2 Broke Girls. Season 2, Episode 7. And the Three Boys with Wood
2 Broke Girls. Season 2, Episode 8. And the Egg Special
2 Broke Girls. Season 2, Episode 9. And the New Boss
2 Broke Girls. Season 2, Episode 10. And the Big Opening
2 Broke Girls. Season 2, Episode 11. And the Silent Partner
2 Broke Girls. Season 2, Episode 12. And the High Holidays
Якість:
Відео:
кодек:
розмір кадру: 720 х 406
бітрейт: ~1300 кб/с

Аудіо # 1:
мова: українська
переклад: багатоголосий закадровий
кодек: 2.0
бітрейт: 192 кб/с

Аудіо # 2:
мова: англійська
переклад: оригінал
кодек: 2.0
бітрейт: 192 кб/с

Джерело озвучення:


Скріншоти



MediaInfo
General
Unique ID : 180811585611155155146848022909288376402 (0x88070B71983786AAAACC4313826EE852)
Complete name : ***\2.Broke.Girls.s02..Ukr.Eng\2.Broke.Girls.s02e01..Ukr.Eng.mkv
Format : Matroska
Format version : Version 2
File size : 264 MiB
Duration : 21mn 42s
Overall bit rate : 1 700 Kbps
Movie name : 2 Broke Girls. Season 2, Episode 1. And the Hidden Stash
Encoded date : UTC 2013-10-31 11:53:11
Writing application : mkvmerge v5.8.0 ('No Sleep / Pillow') built on Sep 2 2012 15:37:04
Writing library : libebml v1.2.3 + libmatroska v1.3.0

Video
ID : 1
Format : AVC
Format/Info : Advanced Video Codec
Format profile : [email protected]
Format settings, CABAC : Yes
Format settings, ReFrames : 5 frames
Codec ID : V_MPEG4/ISO/AVC
Duration : 21mn 42s
Bit rate : 1 282 Kbps
Width : 720 pixels
Height : 406 pixels
Display aspect ratio : 16:9
Frame rate mode : Constant
Frame rate : 23.976 fps
Color space : YUV
Chroma subsampling : 4:2:0
Bit depth : 8 bits
Scan type : Progressive
Bits/(Pixel*Frame) : 0.183
Stream size : 199 MiB (75%)
Writing library : core 138 r2358 9e941d1
Encoding settings : cabac=1 / ref=5 / deblock=1:-2:-2 / analyse=0x3:0x113 / me=umh / subme=8 / psy=1 / psy_rd=1.00:0.00 / mixed_ref=1 / me_range=16 / chroma_me=1 / trellis=1 / 8x8dct=1 / cqm=0 / deadzone=21,11 / fast_pskip=1 / chroma_qp_offset=-2 / threads=12 / lookahead_threads=2 / sliced_threads=0 / nr=0 / decimate=1 / interlaced=0 / bluray_compat=0 / constrained_intra=0 / bframes=3 / b_pyramid=2 / b_adapt=2 / b_bias=0 / direct=3 / weightb=1 / open_gop=0 / weightp=2 / keyint=240 / keyint_min=24 / scenecut=40 / intra_refresh=0 / rc_lookahead=50 / rc=crf / mbtree=1 / crf=19.0 / qcomp=0.60 / qpmin=0 / qpmax=69 / qpstep=4 / ip_ratio=1.40 / aq=1:0.70
Language : English
Default : Yes
Forced : No

Audio #1
ID : 2
Format : AC-3
Format/Info : Audio Coding 3
Mode extension : CM (complete main)
Format settings, Endianness : Big
Codec ID : A_AC3
Duration : 21mn 42s
Bit rate mode : Constant
Bit rate : 192 Kbps
Channel(s) : 2 channels
Channel positions : Front: L R
Sampling rate : 48.0 KHz
Bit depth : 16 bits
Compression mode : Lossy
Stream size : 29.8 MiB (11%)
Language : Ukrainian
Default : Yes
Forced : No

Audio #2
ID : 3
Format : AC-3
Format/Info : Audio Coding 3
Mode extension : CM (complete main)
Format settings, Endianness : Big
Codec ID : A_AC3
Duration : 21mn 42s
Bit rate mode : Constant
Bit rate : 192 Kbps
Channel(s) : 2 channels
Channel positions : Front: L R
Sampling rate : 48.0 KHz
Bit depth : 16 bits
Compression mode : Lossy
Stream size : 29.8 MiB (11%)
Language : English
Default : No
Forced : No
Джерело:
Особиста оцінка: 8 - мені сподобалося


Бронзовий реліз (на рейтинг впливає 75% завантаженого)
 Трекер:    Зареєстрований   

Завантажити / скачати серіал українською



відео для новачків



 Зареєстрований:   2013-11-08 13:39
 Розмір:   3.08 GB 
 Оцінка серіалу:   9.9/10 (Голосів: 29)
   
pony 
VIP


З нами з: 14.05.10
Востаннє: 05.12.16
Повідомлень: 312

2013-11-08 20:53  
дякую за реліз.
хіба по ТБ показали лише 12 серій 2-ого сезону?

Anonymous 







2013-11-10 14:27  
Це всі серії, показані на даний момент. Остнні дві трансляції показували повтори. Сподіваюся це тимчасово.
Stefani..love 
Новенький


З нами з: 24.01.14
Востаннє: 29.01.14
Повідомлень: 1

2014-01-29 13:49  
Обожнюю цей серіал. Happy

Додано через 45 секунд:

Обожнюю цей серіал. Happy

andriec10 
Новенький


З нами з: 12.10.12
Востаннє: 04.12.16
Повідомлень: 8

2015-01-05 16:20  
серіал дуже сподобався
-VipeR- 
VIP


З нами з: 17.07.08
Востаннє: 04.12.16
Повідомлень: 275

2015-01-10 15:13  
Коли ж буде решта українською? В кацапів просто жахливий переклад
01buzya 
Новенький


З нами з: 20.10.10
Востаннє: 22.09.16
Повідомлень: 1

2015-01-10 22:25  
-VipeR-
Ой, не кажи.

Estranded 
VIP


З нами з: 09.02.14
Востаннє: 04.12.16
Повідомлень: 835

2015-08-01 18:53  
Встаньте на роздачу, будь ласкаHappy
don pedro 
Попереджень: 1
Попереджень: 1 


З нами з: 29.06.11
Востаннє: 05.12.16
Повідомлень: 8735

2015-08-01 18:56  
Став.
Estranded 
VIP


З нами з: 09.02.14
Востаннє: 04.12.16
Повідомлень: 835

2015-08-01 19:25  
don pedro
Дякую!

don pedro 
Попереджень: 1
Попереджень: 1 


З нами з: 29.06.11
Востаннє: 05.12.16
Повідомлень: 8735

2015-08-01 19:31  
Estranded
Прошу.

Ваш часовий пояс: GMT + 2 Години

Нова тема   Відповісти