Завантажити та скачати торренти українською


Терорист / Shoot on Sight (2007) 720p Ukr/Eng

Нові коментарі

Нова тема   Відповісти
Автор Повідомлення
urij546724 
Відео Гуртом - фільмокрай
Відео Гуртом - фільмокрай


З нами з: 16.03.10
Востаннє: 03.12.16
Повідомлень: 5222

2013-11-06 19:23  
Терорист / Shoot on Sight (2007) 720p Ukr/Eng



Жанр: кримінальний, драма, трилер
Країна: США, Великобританія



Кіностудія / кінокомпанія: Aron Govil Productions, Cine Boutique Entertainment
Режисер: Джаг Мундра (Jag Mundhra)
Актори: Насіруддін Шах (Naseeruddin Shah), Грета Скакчі (Greta Scacchi), Брайан Кокс (Brian Cox), Стефен Грейф (Stephen Greif), Ом Пурі (Om Puri), Гульшан Гровер (Gulshan Grover), Кріс Вілсон (Chris Wilson), Седі Фрост (Sadie Frost)...

Сюжет:
Поліцейський з особливого відділу повинен ліквідовувати підозрюваних терористів, що здійснили теракт в Лондоні. Його завдання ускладнюється тим, що загоном спецназу була допущена помилка, в результаті якої вбито невинну людину. А на самого героя падає тінь підозри у співпраці з екстремістами...
Media info
General
Unique ID : 197863558293413193135675701974130876651 (0x94DB229B4A1B39688E1231F76F75E0EB)
Complete name : E:\HD1\Shoot on Sight (2007) [ukr_1+1_eng_AC3_5.1] 720p [Hurtom] by urij546724.mkv
Format : Matroska
Format version : Version 2
File size : 5.83 GiB
Duration : 1h 50mn
Overall bit rate : 7 578 Kbps
Movie name : Shoot on Sight (2007) [ukr_1+1_eng_AC3_5.1] 720p [Hurtom] by urij546724
Encoded date : UTC 2013-11-06 17:05:31
Writing application : mkvmerge v2.9.7 ('Tenderness') built on Jul 1 2009 18:43:35
Writing library : libebml v0.7.7 + libmatroska v0.8.1

Video
ID : 1
Format : AVC
Format/Info : Advanced Video Codec
Format profile : [email protected]
Format settings, CABAC : Yes
Format settings, ReFrames : 8 frames
Codec ID : V_MPEG4/ISO/AVC
Duration : 1h 50mn
Bit rate : 6 531 Kbps
Width : 1 280 pixels
Height : 692 pixels
Display aspect ratio : 1.85:1
Frame rate : 23.976 fps
Color space : YUV
Chroma subsampling : 4:2:0
Bit depth : 8 bits
Scan type : Progressive
Bits/(Pixel*Frame) : 0.308
Stream size : 5.02 GiB (86%)
Title : Shoot on Sight (2007) [ukr_1+1_eng_AC3_5.1] 720p [Hurtom] by urij546724
Writing library : core 77 r1292 e381f6d
Encoding settings : cabac=1 / ref=8 / deblock=1:-3:-3 / analyse=0x3:0x113 / me=umh / subme=9 / psy=1 / psy_rd=1.0:0.0 / mixed_ref=1 / me_range=24 / chroma_me=1 / trellis=2 / 8x8dct=1 / cqm=0 / deadzone=21,11 / chroma_qp_offset=-2 / threads=3 / nr=0 / decimate=1 / mbaff=0 / constrained_intra=0 / bframes=6 / b_pyramid=1 / b_adapt=2 / b_bias=0 / direct=1 / wpredb=1 / keyint=250 / keyint_min=25 / scenecut=40 / rc=crf / mbtree=0 / crf=17.0 / qcomp=0.60 / qpmin=10 / qpmax=51 / qpstep=4 / ip_ratio=1.40 / pb_ratio=1.30 / aq=1:1.00
Language : English
Default : Yes
Forced : No

Audio #1
ID : 2
Format : AC-3
Format/Info : Audio Coding 3
Mode extension : CM (complete main)
Format settings, Endianness : Big
Codec ID : A_AC3
Duration : 1h 50mn
Bit rate mode : Constant
Bit rate : 448 Kbps
Channel(s) : 6 channels
Channel positions : Front: L C R, Side: L R, LFE
Sampling rate : 48.0 KHz
Bit depth : 16 bits
Compression mode : Lossy
Stream size : 353 MiB (6%)
Title : Українська доріжка
Language : Ukrainian
Default : Yes
Forced : No

Audio #2
ID : 3
Format : AC-3
Format/Info : Audio Coding 3
Mode extension : CM (complete main)
Format settings, Endianness : Big
Codec ID : A_AC3
Duration : 1h 50mn
Bit rate mode : Constant
Bit rate : 448 Kbps
Channel(s) : 6 channels
Channel positions : Front: L C R, Side: L R, LFE
Sampling rate : 48.0 KHz
Bit depth : 16 bits
Compression mode : Lossy
Stream size : 353 MiB (6%)
Title : Оригінальна доріжка
Language : English
Default : No
Forced : No

Menu
00:00:00.000 : :00:00:00.000
00:14:26.449 : :00:14:26.449
00:30:41.006 : :00:30:41.006
00:47:31.849 : :00:47:31.849
01:03:10.870 : :01:03:10.870
01:18:40.132 : :01:18:40.132
01:34:22.365 : :01:34:22.365
01:46:39.602 : :01:46:39.602
Тривалість: 01:50:07
Якість: 720p
Відео:
кодек:
розмір кадру: 1280 х 544
бітрейт: ~ 6531 кб/с
частота кадрів: 23.976 к/с (fps)

Аудіо #1:
мова: українська
переклад: двоголосий закадровий
кодек: 5.1
бітрейт: 448 кб/с
запис звуку з каналу: 1+1

Аудіо #2:
мова: англійська
переклад: оригінал
кодек: 5.1
бітрейт: 448 кб/с

Скріншоти:





Трейлер
Семпл
Джерело 1_________Джерело 2_________Джерело 3_________Джерело 4_________Джерело 5_________Джерело 6
У випадку, якщо з усіх джерел семпл видалять, прохання повідомити мені у ПРИВАТ


Подяка:

1. Пану urij546724 за запис звуку з ТБ.
2. Пану D800 за українізацію постера.


Реліз створено:

Особиста оцінка: Ще не дивився.


 Трекер:    Зареєстрований   

Завантажити / скачати фільм українською



відео для новачків



 Зареєстрований:   2013-11-06 19:23
 Розмір:   5.83 GB 
 Оцінка фільму:   4.5/10 (Голосів: 6)
 Прохання залишати коментарі і не тікати з роздачі.
   
Інші релізи
   Терорист / Shoot on Sight (2007) Ukr/Eng urij546724  2 / 0   2.35 GB   2013-11-07 15:26 
dniprodd 
Попереджень: 1
Попереджень: 1 


З нами з: 31.10.09
Востаннє: 04.12.16
Повідомлень: 182

2013-11-06 20:18  
таке, щось. і ще й в 720p. однокласники 2 теж тільки 720p. мабуть краще спочатку робити ?! хз
urij546724 
Відео Гуртом - фільмокрай
Відео Гуртом - фільмокрай


З нами з: 16.03.10
Востаннє: 03.12.16
Повідомлень: 5222

2013-11-06 20:50  
dniprodd, буде завтра. Він вже готовий, але для мене краще спочатку роздати 720p, оскільки на HD релізах і так мало сідів, а якщо буде одразу й SD, то буде ще меньше.
Virake 
Localize Team
Localize Team


З нами з: 07.07.09
Востаннє: 04.12.16
Повідомлень: 4052

2013-11-07 09:30  
dniprodd написано:
таке, щось. і ще й в 720p. однокласники 2 теж тільки 720p. мабуть краще спочатку робити ?! хз
тобто, спочатку викладати SD а вже потім HD? навіщо?
dniprodd 
Попереджень: 1
Попереджень: 1 


З нами з: 31.10.09
Востаннє: 04.12.16
Повідомлень: 182

2013-11-07 09:41  
Virake
тому, що мало хто хоче в hd завантажувати. Тим паче посередні фільми. Дуже добре коли одночасно всі ріпи викладаються. ось цей фільм так ніхто за цілий день не завантажив.

Virake 
Localize Team
Localize Team


З нами з: 07.07.09
Востаннє: 04.12.16
Повідомлень: 4052

2013-11-07 13:37  
dniprodd, тому й треба HD спершу викладати - бо воно малопопулярне, йому потрібна фора. а цей реліз ніхто не завантажив з тієї простої причини, що релізер не роздає (11 людей намагаються завантажити).
waldi-hurtom 
VIP


З нами з: 07.10.12
Востаннє: 03.12.16
Повідомлень: 611

2013-11-12 20:43  
Дякую за реліз! Гарний фільм. Таке мені значно більше подобається, ніж міцні горішки. Хоча смаки бувають різні. 8/10
Ваш часовий пояс: GMT + 2 Години

Нова тема   Відповісти