Завантажити та скачати торренти українською


Людина зі сталі / Man of Steel (2013) 720p Ukr/Eng | Sub Ukr/Eng

Нові коментарі

Нова тема   Відповісти
Автор Повідомлення
Drool 
VIP


З нами з: 17.04.10
Востаннє: 03.12.16
Повідомлень: 1262

2013-11-05 22:06  
Людина зі сталі / Man of Steel (2013) 720p Ukr/Eng | Sub Ukr/Eng
Альтернативний постер

Жанр: екшн, пригодницький, фантастика
Країна: США



Кінокомпанія: Warner Bros., Legendary Pictures, Syncopy
Режисер: Зак Снайдер
Актори: Генрі Кавілл, Емі Адамс, Майкл Шеннон, Кевін Костнер, Дайан Лейн, Лоренс Фішберн

Сюжет:
Кларк Кент (Кел-Ел) - молодий журналіст, який відчуває себе чужим через свою неймовірну силу. Багато років тому він був відправлений на Землю з розвиненої планети Криптон, і тепер задається питанням: навіщо?

Вихований прийомними батьками Мартою і Джонатаном Кентами, Кларк знає: мати надздібності - значить приймати складні рішення. Але коли людство найбільше потребує стабільності, воно піддається нападу. Чи зможе герой відновити мир, або скористається своєю силою для того, щоб остаточно його зруйнувати?

Кларк повинен стати супергероєм відомим як «Супермен», щоб вселяти надію в серця людей і захищати тих, кого він любить.


Тривалість: 02:23:02
Якість: 720p
Відео:
кодек:
розмір кадру: 1280x534
бітрейт: 3510 кб/с

Аудіо # 1:
мова: українська
переклад: професійний дубльований
кодек: 5.1
бітрейт: 384 кб/с
Джерело озвучення:


Аудіо # 2:
мова: англійська
переклад: оригінал
кодек: 5.1
бітрейт: 384 кб/с

Субтитри:
мова: українська
тип: програмні (м'які) форсовані + повні
формат: *.srt

Субтитри:
мова: англійська
тип: програмні (м'які) повні + SDH - colored
формат: *.srt
MediaInfo
General
Unique ID : 67872465611504699913010485935937543334 (0x330FC2EA9708C385C3D0B9D70135DCA6)
Complete name : /media/Drool_16Gb/Man.of.Steel.2013.Ukr.Eng.Dub..720p.UAGet.mkv
Format : Matroska
File size : 4.27 GiB
Duration : 2h 23mn
Overall bit rate : 4 278 Kbps
Movie name : Людина зі сталі / Man of Steel (2013) 720p | -=UAGet=-
Encoded date : UTC 2013-11-04 06:11:31
Writing application : mkvmerge v4.8.0 ('I Got The...') сборка от Aug 22 2011 13:16:28
Writing library : libebml v1.2.0 + libmatroska v1.1.0

Video
ID : 1
Format : AVC
Format/Info : Advanced Video Codec
Format profile : [email protected]
Format settings, CABAC : Yes
Format settings, ReFrames : 15 frames
Codec ID : V_MPEG4/ISO/AVC
Duration : 2h 23mn
Bit rate : 3 510 Kbps
Width : 1 280 pixels
Height : 534 pixels
Display aspect ratio : 2.35:1
Frame rate : 23.976 fps
Color space : YUV
Chroma subsampling : 4:2:0
Bit depth : 8 bits
Scan type : Progressive
Bits/(Pixel*Frame) : 0.214
Stream size : 3.42 GiB (80%)
Title : Людина зі сталі / Man of Steel (2013) 720p | -=UAGet=-
Writing library : core 130 r2273 b3065e6
Encoding settings : cabac=1 / ref=16 / deblock=1:-3:-3 / analyse=0x3:0x133 / me=tesa / subme=11 / psy=1 / psy_rd=1.00:0.20 / mixed_ref=1 / me_range=32 / chroma_me=1 / trellis=2 / 8x8dct=1 / cqm=0 / deadzone=21,11 / fast_pskip=0 / chroma_qp_offset=-3 / threads=6 / lookahead_threads=1 / sliced_threads=0 / nr=0 / decimate=1 / interlaced=0 / bluray_compat=0 / constrained_intra=0 / bframes=11 / b_pyramid=1 / b_adapt=2 / b_bias=0 / direct=3 / weightb=1 / open_gop=0 / weightp=2 / keyint=240 / keyint_min=24 / scenecut=40 / intra_refresh=0 / rc=2pass / mbtree=0 / bitrate=3510 / ratetol=1.0 / qcomp=1.00 / qpmin=0 / qpmax=69 / qpstep=4 / cplxblur=20.0 / qblur=0.5 / ip_ratio=1.40 / pb_ratio=1.30 / aq=2:0.60
Color primaries : BT.709-5, BT.1361, IEC 61966-2-4, SMPTE RP177
Transfer characteristics : BT.709-5, BT.1361
Matrix coefficients : BT.709-5, BT.1361, IEC 61966-2-4 709, SMPTE RP177

Audio #1
ID : 2
Format : AC-3
Format/Info : Audio Coding 3
Mode extension : CM (complete main)
Codec ID : A_AC3
Duration : 2h 23mn
Bit rate mode : Constant
Bit rate : 384 Kbps
Channel(s) : 6 channels
Channel positions : Front: L C R, Side: L R, LFE
Sampling rate : 48.0 KHz
Bit depth : 16 bits
Compression mode : Lossy
Stream size : 393 MiB (9%)
Title : Рідна мова | 5.1, 384 kbps (from DVD)
Language : Ukrainian

Audio #2
ID : 3
Format : AC-3
Format/Info : Audio Coding 3
Mode extension : CM (complete main)
Codec ID : A_AC3
Duration : 2h 23mn
Bit rate mode : Constant
Bit rate : 384 Kbps
Channel(s) : 6 channels
Channel positions : Front: L C R, Side: L R, LFE
Sampling rate : 48.0 KHz
Bit depth : 16 bits
Compression mode : Lossy
Stream size : 393 MiB (9%)
Title : English | 5.1, 384 kbps
Language : English

Text #1
ID : 4
Format : UTF-8
Codec ID : S_TEXT/UTF8
Codec ID/Info : UTF-8 Plain Text
Title : Українські (форсовані)
Language : Ukrainian

Text #2
ID : 5
Format : UTF-8
Codec ID : S_TEXT/UTF8
Codec ID/Info : UTF-8 Plain Text
Title : Українські (повні)
Language : Ukrainian

Text #3
ID : 6
Format : UTF-8
Codec ID : S_TEXT/UTF8
Codec ID/Info : UTF-8 Plain Text
Title : English (full)
Language : English

Text #4
ID : 7
Format : UTF-8
Codec ID : S_TEXT/UTF8
Codec ID/Info : UTF-8 Plain Text
Title : English (SDH - colored)
Language : English
Скріншоти




Реліз від:
Особиста оцінка: 10 - без зайвих вагань рекомендую всім!


 Трекер:    Зареєстрований   

Завантажити / скачати фільм українською



відео для новачків



 Зареєстрований:   2013-11-05 22:06
 Розмір:   4.27 GB 
 Оцінка фільму:   9.5/10 (Голосів: 47)
   
Інші релізи
Drool 
VIP


З нами з: 17.04.10
Востаннє: 03.12.16
Повідомлень: 1262

2013-11-05 23:20  
Додав зразок відео.
igor911 
Відео Гуртом
Відео Гуртом


З нами з: 18.01.08
Востаннє: 03.12.16
Повідомлень: 5115

2013-11-06 01:14  
Drool написано:
ReFrames : 15 frames

таке не піде на залізних програвачах телеків

Додано через 1 хвилину 29 секунд:

на самсунгах, наприклад, ширина*висота*ReFrames повинно бути не більше 9000000

Drool 
VIP


З нами з: 17.04.10
Востаннє: 03.12.16
Повідомлень: 1262

2013-11-06 01:25  
igor911 написано:
таке не піде на залізних програвачах телеків

Перевірено - іде. Не знаю, на всіх, чи ні, але на двох лижах та одному самсунгу іде спокійно.

P.S. Народ, я що - дарма зразок відео викладував? Не впевнені піде чи ні - скачайте семпл.

trelxtrel 
VIP


З нами з: 15.12.10
Востаннє: 02.12.16
Повідомлень: 327

2014-03-17 11:35  
Хороша екранізація коміксів про Супермена! Дивився його в 3D - мені сподобався! Порівняно із попередніми фільмами - на голову вище плюс із сучаснішими можливостями комп'ютерної графіки виглядає набагато ефектніше!

7,5/10

Ваш часовий пояс: GMT + 2 Години

Нова тема   Відповісти