Завантажити та скачати торренти українською


Сортування / Triage (2009) 720p Ukr/Eng | Sub Eng

Нові коментарі

Нова тема   Відповісти
Автор Повідомлення
Anonymous 







2013-11-05 21:46  
Сортування / Triage (2009) 720p Ukr/Eng | Sub Eng



Альтернативний постер



Жанр: драма, детектив, військовий
Країна: Франція, Іспанія, Ірландія, Бельгія



Кінокомпанія: Parallel Film Productions, Asap Films, Freeform Spain
Режисер: Даніс Танович / Danis Tanovic
Актори: Колін Фаррелл / Colin Farrell, Джеймі Сівз / Jamie Sives, Паз Веґа / Paz Vega, Келлі Рейлі / Kelly Reilly, Бранко Джурич / Branko Djuric, Мозаффарі Шафейе / Mozaffar Shafeie, Каржан Шерабаяні / Kae Bahar (as Karzan Sherabayani), Луіс Кальєхо / Luis Callejo, Алекс Спійксма / Alex Spijksma, Йен МакЕлхінні / Ian McElhinney, Джульєт Стівенсон / Juliet Stevenson, Мішель Хартман / Michelle Hartman, Ейлін Волш / Eileen Walsh, Нік Даннінг / Nick Dunning, Крістофер Лі / Christopher Lee, Ріс Річі / Reece Ritchie та інші

Сюжет:
Два нерозлучних друга, що працюють фотокореспондентами у гарячих точках, готові ризикувати своїми життями заради сенсаційних матеріалів. Головне, не переступати ту межу, за якою вже немає вороття назад...

Відправившись на чергове завдання в охоплений війною Курдистан, вони потрапляють до польового шпиталю, де стають свідками жорстокого і цинічного "сортування" поранених - важких "лікують" пострілами в голову, а решту намагаються поставити на ноги.

Приголомшені тим, що відбувається, друзі вирішують відкласти своє повернення додому і продовжити роботу. Вони ще не знають, яке тяжке випробування їх чекає та яку страшну ціну доведеться заплатити за свій останній репортаж...



Рейтинг MPAA: R - особам до 17 років обов'язкова присутність батьків або дорослого опікуна
Вікова категорія: 16+


Тривалість: 01:39:36
Якість: 720p
Відео:
кодек:
розмір кадру: 1280x544
бітрейт: 5655 кб/с

Аудіо # 1:
мова: українська
переклад: багатоголосий закадровий
кодек: 2.0
бітрейт: 192 кб/с

Аудіо # 2:
мова: англійська
переклад: оригінал
кодек: 5.1
бітрейт: 1536 кб/с

Субтитри:
мова: англійська
тип: програмні (м'які)
формат: *.srt

Збережено оригінальні розділи, як на Blu-ray.
MediaInfo
Код:
General
Unique ID                                : 191256565354036763042349553267259007695 (0x8FE2ACB464F44CCA8A0EB5A2E654E2CF)
Complete name                            : Triage (2009) [Ukr,Eng sub.Eng] 720p [Hurtom].mkv
Format                                   : Matroska
Format version                           : Version 4 / Version 2
File size                                : 5.11 GiB
Duration                                 : 1h 39mn
Overall bit rate                         : 7 359 Kbps
Movie name                               : Сортування / Triage (2009) 720p [Hurtom]
Encoded date                             : UTC 2013-11-04 14:24:30
Writing application                      : mkvmerge v6.5.0 ('Isn't she lovely') built on Oct 20 2013 12:50:05
Writing library                          : libebml v1.3.0 + libmatroska v1.4.1

Video
ID                                       : 1
Format                                   : AVC
Format/Info                              : Advanced Video Codec
Format profile                           : [email protected]
Format settings, CABAC                   : Yes
Format settings, ReFrames                : 12 frames
Codec ID                                 : V_MPEG4/ISO/AVC
Duration                                 : 1h 39mn
Bit rate                                 : 5 655 Kbps
Width                                    : 1 280 pixels
Height                                   : 544 pixels
Display aspect ratio                     : 2.35:1
Frame rate mode                          : Constant
Frame rate                               : 24.000 fps
Color space                              : YUV
Chroma subsampling                       : 4:2:0
Bit depth                                : 8 bits
Scan type                                : Progressive
Bits/(Pixel*Frame)                       : 0.338
Stream size                              : 3.83 GiB (75%)
Title                                    : Сортування / Triage / Сортировка (2009) 720p
Writing library                          : core 100 r1659 57b2e56
Encoding settings                        : cabac=1 / ref=12 / deblock=1:-3:-3 / analyse=0x3:0x133 / me=umh / subme=10 / psy=1 / psy_rd=0.80:0.30 / mixed_ref=1 / me_range=32 / chroma_me=1 / trellis=2 / 8x8dct=1 / cqm=0 / deadzone=21,11 / fast_pskip=0 / chroma_qp_offset=-4 / threads=6 / sliced_threads=0 / nr=0 / decimate=1 / interlaced=0 / constrained_intra=0 / bframes=6 / b_pyramid=2 / b_adapt=2 / b_bias=0 / direct=3 / weightb=1 / open_gop=0 / weightp=2 / keyint=250 / keyint_min=25 / scenecut=40 / intra_refresh=0 / rc_lookahead=100 / rc=2pass / mbtree=1 / bitrate=5655 / ratetol=1.0 / qcomp=0.60 / qpmin=10 / qpmax=51 / qpstep=4 / cplxblur=20.0 / qblur=0.5 / ip_ratio=1.40 / aq=1:0.90
Language                                 : English
Default                                  : Yes
Forced                                   : No

Audio #1
ID                                       : 2
Format                                   : AC-3
Format/Info                              : Audio Coding 3
Mode extension                           : CM (complete main)
Format settings, Endianness              : Big
Codec ID                                 : A_AC3
Duration                                 : 1h 39mn
Bit rate mode                            : Constant
Bit rate                                 : 192 Kbps
Channel count                            : 2 channels
Channel positions                        : Front: L R
Sampling rate                            : 48.0 KHz
Bit depth                                : 16 bits
Compression mode                         : Lossy
Stream size                              : 137 MiB (3%)
Title                                    : MVO [Tonis] 2.0 192 kbps [Hurtom-Vasua95]
Language                                 : Ukrainian
Default                                  : Yes
Forced                                   : No

Audio #2
ID                                       : 3
Format                                   :
Format/Info                              : Digital Theater Systems
Format profile                           : ES
Mode                                     : 16
Format settings, Endianness              : Big
Codec ID                                 : A_DTS
Duration                                 : 1h 39mn
Bit rate mode                            : Constant
Bit rate                                 : 1 509 Kbps
Channel count                            : 6 channels
Channel positions                        : Front: L C R, Side: L R, LFE
Sampling rate                            : 48.0 KHz
Bit depth                                : 16 bits
Compression mode                         : Lossy
Stream size                              : 1.05 GiB (21%)
Title                                    : Original 5.1 1536 kbps
Language                                 : English
Default                                  : No
Forced                                   : No

Text
ID                                       : 4
Format                                   : UTF-8
Codec ID                                 : S_TEXT/UTF8
Codec ID/Info                            : UTF-8 Plain Text
Title                                    : Eng full
Language                                 : English
Default                                  : No
Forced                                   : No

Menu
00:00:00.000                             : en:Chapter 1
00:07:53.583                             : en:Chapter 2
00:17:03.625                             : en:Chapter 3
00:25:38.750                             : en:Chapter 4
00:33:52.417                             : en:Chapter 5
00:43:14.625                             : en:Chapter 6
00:50:07.875                             : en:Chapter 7
00:55:50.208                             : en:Chapter 8
01:06:07.542                             : en:Chapter 9
01:13:47.083                             : en:Chapter 10
01:24:39.542                             : en:Chapter 11
01:31:28.167                             : en:Chapter 12




Джерела та подяки: &
ріп відео, оригінальні звук та субтитри - MotiGuj (рутрекер); українська доріжка - Vasua95 - зведення, POMEO - запис з ТБ; (обоє - Гуртом).


ЗАЛИШАЙТЕСЬ ЯКОМОГА ДОВШЕ НА РОЗДАЧІ!

СКАЧАВ САМ - ДАЙ СКАЧАТИ ІНШИМ


 Трекер:    Зареєстрований   

Завантажити / скачати фільм українською



відео для новачків



 Зареєстрований:   2013-11-05 21:46
 Розмір:   5.11 GB 
 Оцінка фільму:   3.9/10 (Голосів: 15)
   
Інші релізи
   Сортування / Triage (2009) AngryBirdsUA  4 / 0   1.45 GB   2013-11-03 18:19 
Ваш часовий пояс: GMT + 2 Години

Нова тема   Відповісти