Завантажити та скачати торренти українською


Два стволи / 2 Guns (2013) 720p Ukr/Eng

Нові коментарі

Нова тема   Відповісти
Автор Повідомлення
Sando7 
Відео Гуртом - запис з ТБ
Відео Гуртом - запис з ТБ


З нами з: 04.05.09
Востаннє: 06.12.16
Повідомлень: 840

2013-11-05 19:46  
Два стволи / 2 Guns (2013) 720p Ukr/Eng

Два стволи / 2 Guns (2013) 720p Ukr/Eng


Жанр: екшн, комедія, кримінальний, драма, трилер
Країна: США



Кінокомпанія: Universal Pictures, Emmett/Furla Films, Marc Platt Productions
Режисер: Бальтазар Кормакур / Baltasar Kormákur
Актори: Дензел Вашинґтон / Denzel Washington, Марк Волберґ / Mark Wahlberg, Паула Паттон / Paula Patton, Білл Пекстон / Bill Paxton, Фред Ворд / Fred Ward, Джеймс Мерсден / James Marsden, Едвард Джеймс Олмос / Edward James Olmos та інші

Сюжет:
Це історія двох грабіжників, які насправді не ті, ким здаються. Один з них - агент з управління по боротьбі з наркотиками, а інший - таємний агент розвідки ВМС. Самі того не бажаючи, вони займаються розслідуванням справ один одного, а також крадуть гроші у мафії. Через деякий час героям доведеться вкрасти 50 мільйонів доларів у ЦРУ.


Тривалість: 01:49:15
Якість: 720p
Відео:
кодек:
розмір кадру: 1280 х 536
бітрейт: 4213 кб/с

Аудіо # 1:
мова: українська
переклад: професійний дубльований
кодек: 5.1
бітрейт: 448 кб/с

Аудіо # 2:
мова: англійська
переклад: оригінал
кодек: 5.1
бітрейт: 448 кб/с
MediaInfo

Complete name : D:\uTorrentPortable\Data\downloads\2 Guns (2013) [Ukr.Eng] 720p [Hurtom].mkv
Format : Matroska
Format version : Version 1
File size : 3.90 GiB
Duration : 1h 49mn
Overall bit rate : 5 110 Kbps
Encoded date : UTC 2013-12-19 19:06:31
Writing application : mkvmerge v2.4.1 ('Use Me') built on Dec 5 2008 18:30:05
Writing library : libebml v0.7.7 + libmatroska v0.8.1

Video
ID : 1
Format : AVC
Format/Info : Advanced Video Codec
Format profile : [email protected]
Format settings, CABAC : Yes
Format settings, ReFrames : 5 frames
Codec ID : V_MPEG4/ISO/AVC
Duration : 1h 49mn
Bit rate : 4 213 Kbps
Width : 1 280 pixels
Height : 536 pixels
Display aspect ratio : 2.40:1
Frame rate mode : Constant
Frame rate : 23.976 fps
Color space : YUV
Chroma subsampling : 4:2:0
Bit depth : 8 bits
Scan type : Progressive
Bits/(Pixel*Frame) : 0.256
Stream size : 3.14 GiB (80%)
Writing library : core 140 r2377 1ca7bb9
Encoding settings : cabac=1 / ref=5 / deblock=1:0:0 / analyse=0x3:0x133 / me=umh / subme=7 / psy=1 / psy_rd=1.00:0.00 / mixed_ref=1 / me_range=16 / chroma_me=1 / trellis=1 / 8x8dct=1 / cqm=0 / deadzone=21,11 / fast_pskip=0 / chroma_qp_offset=-2 / threads=18 / lookahead_threads=3 / sliced_threads=0 / nr=0 / decimate=1 / interlaced=0 / bluray_compat=0 / constrained_intra=0 / bframes=3 / b_pyramid=2 / b_adapt=1 / b_bias=0 / direct=1 / weightb=1 / open_gop=0 / weightp=2 / keyint=250 / keyint_min=23 / scenecut=40 / intra_refresh=0 / rc_lookahead=40 / rc=2pass / mbtree=1 / bitrate=4213 / ratetol=1.0 / qcomp=0.60 / qpmin=0 / qpmax=69 / qpstep=4 / cplxblur=20.0 / qblur=0.5 / ip_ratio=1.40 / aq=1:1.00
Language : English
Default : Yes
Forced : No

Audio #1
ID : 2
Format : AC-3
Format/Info : Audio Coding 3
Mode extension : CM (complete main)
Format settings, Endianness : Big
Codec ID : A_AC3
Duration : 1h 49mn
Bit rate mode : Constant
Bit rate : 448 Kbps
Channel count : 6 channels
Channel positions : Front: L C R, Side: L R, LFE
Sampling rate : 48.0 KHz
Bit depth : 16 bits
Compression mode : Lossy
Stream size : 350 MiB (9%)
Title : UKR
Language : Ukrainian
Default : Yes
Forced : No

Audio #2
ID : 3
Format : AC-3
Format/Info : Audio Coding 3
Mode extension : CM (complete main)
Format settings, Endianness : Big
Codec ID : A_AC3
Duration : 1h 49mn
Bit rate mode : Constant
Bit rate : 448 Kbps
Channel count : 6 channels
Channel positions : Front: L C R, Side: L R, LFE
Sampling rate : 48.0 KHz
Bit depth : 16 bits
Compression mode : Lossy
Stream size : 350 MiB (9%)
Language : English
Default : No
Forced : No

Text
ID : 4
Format : UTF-8
Codec ID : S_TEXT/UTF8
Codec ID/Info : UTF-8 Plain Text
Language : English
Default : No
Forced : No

Menu
00:00:00.000 : en:00:00:00.000
00:05:36.044 : en:00:05:36.044
00:10:44.185 : en:00:10:44.185
00:15:15.206 : en:00:15:15.206
00:20:42.283 : en:00:20:42.283
00:24:47.736 : en:00:24:47.736
00:29:20.842 : en:00:29:20.842
00:36:24.099 : en:00:36:24.099
00:40:56.371 : en:00:40:56.371
00:45:39.278 : en:00:45:39.278
00:52:17.051 : en:00:52:17.051
00:58:13.782 : en:00:58:13.782
01:05:49.988 : en:01:05:49.988
01:10:28.683 : en:01:10:28.683
01:14:35.388 : en:01:14:35.388
01:20:14.560 : en:01:20:14.560
01:24:46.915 : en:01:24:46.915
01:31:11.925 : en:01:31:11.925
01:38:23.648 : en:01:38:23.648
01:41:02.640 : en:01:41:02.640


Джерело: &


 Трекер:    Зареєстрований   

Завантажити / скачати фільм українською



відео для новачків



 Зареєстрований:   2013-12-19 21:33
 Розмір:   3.9 GB 
 Оцінка фільму:   9.2/10 (Голосів: 56)
   
Інші релізи
   Два стволи / 2 Guns (2013) AVC patriot2305  5 / 0   2.25 GB   2013-12-30 19:33 
   Два стволи / 2 Guns (2013) Ukr/Eng | Sub Eng Gelios  3 / 0   2.19 GB   2013-12-21 10:35 
   Два стволи / 2 Guns (2013) Blu-ray 1080p Multi | Sub Multi 11FrYkT  0 / 0   34.83 GB   2013-12-21 10:02 
   Два стволи / 2 Guns (2013) ilu  8 / 0   1.45 GB   2013-12-20 23:01 
   Два стволи / 2 Guns (2013) 1080p Ukr/Eng | Sub Eng 11FrYkT  2 / 0   9.97 GB   2013-12-19 19:22 
Lybko89 
Новенький


З нами з: 01.10.11
Востаннє: 05.12.16
Повідомлень: 4

2013-11-06 22:38  
Хто зкачав відпишіть як озвучка?
Lil`Antoni 
Поважний учасник


З нами з: 25.02.12
Востаннє: 06.12.16
Повідомлень: 204

2013-11-07 13:52  
Озвучка гарна. Фільм, вище середного. Було пару моментів прикольних.
seroga13 
VIP


З нами з: 22.06.09
Востаннє: 05.12.16
Повідомлень: 257

2013-11-10 02:09  
Класний фільм!
kino. 
Модератор відео


З нами з: 27.06.10
Востаннє: 06.12.16
Повідомлень: 2900

2013-12-19 19:17  
оновлення буде?
patriot2305 
Почесний гуртомівець


З нами з: 23.04.11
Востаннє: 06.12.16
Повідомлень: 4145

2013-12-19 21:28  
kino.
Так, планується...

Sando7 
Відео Гуртом - запис з ТБ
Відео Гуртом - запис з ТБ


З нами з: 04.05.09
Востаннє: 06.12.16
Повідомлень: 840

2013-12-19 21:35  
реліз оновлено

завантажте будь ласка свіжий торрент файл

waldi-hurtom 
VIP


З нами з: 07.10.12
Востаннє: 05.12.16
Повідомлень: 611

2013-12-21 21:21  
Дурнуватий фільм, на трійочку (з 10). Мабуть, тому, що на тверезу голову дивився.
Avsel 
Свій


З нами з: 30.04.08
Востаннє: 18.11.16
Повідомлень: 57

2013-12-31 19:59  
А мені сподобався. Не шедевр звісно, але подивитись можна.
ProgBassing 
Відео Гуртом - фільмокрай
Відео Гуртом - фільмокрай


З нами з: 08.03.08
Востаннє: 06.12.16
Повідомлень: 607

2014-01-30 09:38  
Кіно супер-класне... хоч і супер-цинічне!

Дубляж на рівні - давно не чув настільки "живих" діалогів!!!

trelxtrel 
VIP


З нами з: 15.12.10
Востаннє: 06.12.16
Повідомлень: 327

2014-03-11 14:26  
Хороший екшн - бойовичок з дозованою порцією гумору! Однозначно вартий уваги!

7/10

Ваш часовий пояс: GMT + 2 Години

Нова тема   Відповісти