Завантажити та скачати торренти українською


VA - Перлини класичної музики. Випуск 2 [Золота колекція] (2007) [WV] | Classical

Нові коментарі

Нова тема   Відповісти
Автор Повідомлення
ssTAss 
Модератор музики


З нами з: 05.07.08
Востаннє: 03.12.16
Повідомлень: 10932

2013-11-03 23:28  
VA - Перлини класичної музики. Випуск 2 [Золота колекція] (2007) [WV] | Classical

VA - Перлини класичної музики. Випуск 2 [Золота колекція] (2007) [WV] | Classical


Стиль: Classic
Країна: Україна
Видавець: Астра Рекордс
Пісні:
    1. "Сициліана" (Є. Ганн, Н. Ізмайлова)
    музика: Й. С. Бах
    2. "Алеманда" з Сюїти № 6 для віолончелі соло D-dur (Г. Нужа)
    музика: Й. С. Бах
    3. "Фантазія" для фортепіано d-moll (А. Кутасевич)
    музика: В. А. Моцарт
    4. Прелюдія e-moll (К. Фесенко)
    музика: Ф. Шопен
    5. "Чудовий вечір" з циклу "Прелюдії" (Ю. Пантелят, Д. Манеліс)
    музика: К. Дебюссі
    6. "В човні" – п’єса з "Маленької сюїти" для фортепіано в чотири руки (В. Новиков, Н. Толпиго)
    музика: К. Дебюссі
    7. "П’єса-фантазія" (В. Потапов, В. Новиков)
    музика: Р. Шуман
    8. "Угорський танець" f-moll (О. Криса, Т. Чекіна)
    музика: Й. Брамс
    9. Інтермецо b-moll (М. Сук)
    музика: Й. Брамс
    10. "Музикальний момент" b-moll (Т. Кравченко)
    музика: С. Рахманінов
    11. Прелюдія A-dur (К. Фесенко)
    музика: Ф. Шопен
    12. Інтродукція і рондо капрічіозо (А. Мельников, Симфонічний оркестр УР)
    музика: К. Сен-Санс
    13. "Мазурка" № 2 cis-moll (О. Гринюк)
    музика: Ф. Шопен
    14. "Музикальний момент" h-moll (Т. Кравченко)
    музика: С. Рахманінов
    15. "Алеманда" з Партити № 2 для скрипки соло d-moll (О. Криса)
    музика: Й. С. Бах
log
Exact Audio Copy V1.0 beta 3 from 29. August 2011

EAC extraction logfile from 14. October 2013, 18:58

VA / Перлини класичної музики CD2. Золота колекція

Used drive : TSSTcorpCDDVDW SH-222BB Adapter: 3 ID: 1

Read mode : Secure
Utilize accurate stream : Yes
Defeat audio cache : Yes
Make use of C2 pointers : No

Read offset correction : 6
Overread into Lead-In and Lead-Out : No
Fill up missing offset samples with silence : Yes
Delete leading and trailing silent blocks : No
Null samples used in CRC calculations : Yes
Used interface : Installed external ASPI interface

Used output format : User Defined Encoder
Selected bitrate : 1024 kBit/s
Quality : High
Add ID3 tag : No
Command line compressor : C:\Program Files (x86)\Exact Audio Copy\wavpack.exe
Additional command line options : -hm %source% %dest%

TOC of the extracted CD

Track | Start | Length | Start sector | End sector
---------------------------------------------------------
1 | 0:00.00 | 2:38.12 | 0 | 11861
2 | 2:38.12 | 5:54.29 | 11862 | 38440
3 | 8:32.41 | 5:45.06 | 38441 | 64321
4 | 14:17.47 | 2:22.24 | 64322 | 74995
5 | 16:39.71 | 2:40.02 | 74996 | 86997
6 | 19:19.73 | 4:00.07 | 86998 | 105004
7 | 23:20.05 | 3:07.11 | 105005 | 119040
8 | 26:27.16 | 3:56.05 | 119041 | 136745
9 | 30:23.21 | 5:34.06 | 136746 | 161801
10 | 35:57.27 | 7:08.72 | 161802 | 193973
11 | 43:06.24 | 0:58.04 | 193974 | 198327
12 | 44:04.28 | 9:40.03 | 198328 | 241830
13 | 53:44.31 | 2:07.25 | 241831 | 251380
14 | 55:51.56 | 8:13.46 | 251381 | 288401
15 | 64:05.27 | 6:51.46 | 288402 | 319272

Range status and errors

Selected range

Filename F:\NetLab\VA - Перлини класичної музики CD2. Золота колекція\VA - Перлини класичної музики CD2. Золота колекція.wav

Peak level 94.8 %
Extraction speed 7.6 X
Range quality 100.0 %
Test CRC 0832D5D0
Copy CRC 0832D5D0
Copy OK

No errors occurred

AccurateRip summary

Track 1 not present in database
Track 2 not present in database
Track 3 not present in database
Track 4 not present in database
Track 5 not present in database
Track 6 not present in database
Track 7 not present in database
Track 8 not present in database
Track 9 not present in database
Track 10 not present in database
Track 11 not present in database
Track 12 not present in database
Track 13 not present in database
Track 14 not present in database
Track 15 not present in database

None of the tracks are present in the AccurateRip database

End of status report
fooCDtect
fooCDtect - foobar2000 + auCDtect, baralgin.

auCDtect: CD records authenticity detector, version 0.8.2
Copyright (c) 2004 Oleg Berngardt. All rights reserved.
Copyright (c) 2004 Alexander Djourik. All rights reserved.

mode: 0

===========================================
Track: 01 - Сициліана
Quality: CDDA 76%
===========================================
Track: 02 - Алеманда
Quality: CDDA 100%
===========================================
Track: 03 - Фантазія
Quality: CDDA 100%
===========================================
Track: 04 - Прелюдія e-moll
Quality: MPEG 90%
===========================================
Track: 05 - Чудовий вечір з циклу 'Прелюдії
Quality: MPEG 99%
===========================================
Track: 06 - В човні' – п’єса з 'Маленької сюїти для фортепіано в чотири руки
Quality: MPEG 100%
===========================================
Track: 07 - П’єса-фантазія
Quality: CDDA 100%
===========================================
Track: 08 - Угорський танець f-moll
Quality: CDDA 100%
===========================================
Track: 09 - Інтермецо b-moll
Quality: MPEG 100%
===========================================
Track: 10 - Музикальний момент b-moll
Quality: MPEG 100%
===========================================
Track: 11 - Прелюдія A-dur
Quality: MPEG 97%
===========================================
Track: 12 - Інтродукція і рондо капрічіозо
Quality: CDDA 99%
===========================================
Track: 13 - Мазурка № 2 cis-moll
Quality: CDDA 100%
===========================================
Track: 14 - Музикальний момент h-moll
Quality: MPEG 100%
===========================================
Track: 15 - Алеманда' з Партити № 2 для скрипки соло d-moll
Quality: CDDA 100%
===========================================
Тривалість: 01:10:57
Мова: відсутня
Аудіо-кодек: WavPack
Бітрейт: 486 кб/с
Джерело: ріп worand
Додаткова інформація:
Так само, як і в першому випуску, ця збірка презентує твори світової класики у виконанні українських музикантів. І визначення "перлини" стосується, безумовно, не тільки самих творів, але і представлених тут зразків виконавської майстерності. Адже поваги варті не тільки імена Баха, Моцарта, Шопена, Брамса, Рахманінова – уважний слухач буде радий почути виконання, наприклад, Костянтина Фесенка, Олега Криси, Анатолія Мельникова тощо. Зрештою, як і завжди, новий диск серії "Золота колекція" тішить якістю – і запису, і зібраного матеріалу. Цього разу теж не минулося без раритетів: якщо найсвіжіший запис датовано 2003-м роком, то найстаріший – 1973-м. "Золота колекція" у черговий раз дає непересічну можливість насолодитися музикою, яку за інших обставин знайти було б надзвичайно важко. Слухати її не те щоби обов’язково необхідно для всіх і всюди – але вона попросту настільки красива, що немає жодного сенсу відмовляти собі у задоволенні. Навіть якщо зазвичай Ви слухаєте іншу музику – цей диск цілком здатен підштовхнути до того, аби розширити обрії власних уподобань..


Якщо Ви справді бажаєте підтримати українське - після прослуховування, якщо музика вам сподобалась,
придбайте ліцензійний диск.
Підтримаймо вітчизняних виконавців!


Срібний реліз (на рейтинг впливає 50% завантаженого)
 Трекер:    Зареєстрований   

Завантажити / скачати українську музику



відео для новачків



 Зареєстрований:   2013-11-03 23:28
 Розмір:   286 MB 
 Оцінка музики:   8.2/10 (Голосів: 15)
   
Ваш часовий пояс: GMT + 2 Години

Нова тема   Відповісти