Завантажити та скачати торренти українською


Історія Попелюшки / А Cinderella story (2004) 1080p 3xUkr/Eng | Sub Eng

Нові коментарі

Нова тема   Відповісти
Автор Повідомлення
Anonymous 







2013-11-03 11:12  
Історія Попелюшки / A Cinderella Story (2004) 1080p 3xUkr/Eng | Sub Eng



Жанр: мелодрама, комедія, сімейний
Країна: США, Канада



Кінокомпанія: Warner Bros., Gaylord Films, Clifford Werber Productions
Режисер: Марк Росмен / Mark Rosman
Актори: Гіларі Дафф / Hilary Duff, Дженіфер Кулідж / Jennifer Coolidge, Чед Майкл Мюррей / Chad Michael Murray, Ден Берд / Dan Byrd, Реджина Кінг / Regina King, Джулі Гонсало / Julie Gonzalo, Лін Шей / Lin Shaye

Сюжет:
Сучасна версія класичної казки. Випускниця Сем Монтгомері живе у своєї егоцентричної мачухи Фіони та злих зведених сестер і мріє вступити до Прінстонського університету (найкраще місце, де майбутня принцеса може зустріти Прекрасного принца). А може, вона його вже зустріла? З'ясовується, що віртуальний шанувальник, який запросив її на шкільну вечірку - найкращий хлопець школи. Сем у паніці тікає, забуваючи свій мобільний телефон, і всіляко перешкоджає спробам кавалера довідатися, хто ж насправді його принцеса. Чи стане казка реальністю? Щастя Сем - у її власних руках!



Рейтинг MPAA: PG - рекомендується присутність батьків
Вікова категорія: 12+


Тривалість: 01:35:12
Якість: 1080p
Відео:
кодек:
розмір кадру: 1908x1080
бітрейт: 11.8 Mbps (crf=19.5)

Аудіо # 1:
мова: українська
переклад: багатоголосий закадровий
кодек: 2.0
бітрейт: 192 кб/с
Інформація про озвучення
Аудіо # 2:
мова: українська
переклад: двоголосий закадровий
кодек: 2.0
бітрейт: 192 кб/с
Інформація про озвучення
Переклад: Олени Лабуньки
Літературний редактор: Романна Мельниченко
Звукорежисер: Сергій Вачі
Режисер: Богдан Підгірний
Текст читали актори: Тетяна Антонова та Олександр Завальський
Аудіо # 3:
мова: українська
переклад: двоголосий закадровий
кодек: 2.0
бітрейт: 192 кб/с
Інформація про озвучення
Аудіо # 4:
мова: англійська
переклад: оригінал
кодек: 5.1
бітрейт: 1536 кб/с

Субтитри:
мова: англійська
тип: програмні (м'які)
формат: *.srt
MediaInfo
Код:
General
Unique ID                                : 203054686925232324919502856894237370670 (0x98C2E9023200EF2486C941F9B45BE92E)
Complete name                            : A Cinderella Story(2004) [3xUkr,Eng sub.Eng] 1080p [Hurtom].mkv
Format                                   : Matroska
Format version                           : Version 4 / Version 2
File size                                : 9.45 GiB
Duration                                 : 1h 35mn
Overall bit rate                         : 14.2 Mbps
Movie name                               : Історія Попелюшки / A Cinderella Story (2004) 1080р [Hurtom]
Encoded date                             : UTC 2013-11-02 20:49:51
Writing application                      : mkvmerge v6.5.0 ('Isn't she lovely') built on Oct 20 2013 12:50:05
Writing library                          : libebml v1.3.0 + libmatroska v1.4.1

Video
ID                                       : 1
Format                                   : AVC
Format/Info                              : Advanced Video Codec
Format profile                           : [email protected]
Format settings, CABAC                   : Yes
Format settings, ReFrames                : 4 frames
Codec ID                                 : V_MPEG4/ISO/AVC
Duration                                 : 1h 35mn
Bit rate                                 : 11.8 Mbps
Width                                    : 1 908 pixels
Height                                   : 1 080 pixels
Display aspect ratio                     : 16:9
Frame rate mode                          : Constant
Frame rate                               : 23.976 fps
Color space                              : YUV
Chroma subsampling                       : 4:2:0
Bit depth                                : 8 bits
Scan type                                : Progressive
Bits/(Pixel*Frame)                       : 0.240
Stream size                              : 7.87 GiB (83%)
Title                                    : Історія Попелюшки / A Cinderella Story / История Золушки (2004) 1080р [STarankov]
Writing library                          : core 130 r2273 b3065e6
Encoding settings                        : cabac=1 / ref=4 / deblock=1:-1:-1 / analyse=0x3:0x113 / me=umh / subme=9 / psy=1 / psy_rd=1.00:0.15 / mixed_ref=1 / me_range=24 / chroma_me=1 / trellis=2 / 8x8dct=1 / cqm=0 / deadzone=21,11 / fast_pskip=1 / chroma_qp_offset=-3 / threads=6 / lookahead_threads=1 / sliced_threads=0 / nr=0 / decimate=1 / interlaced=0 / bluray_compat=0 / constrained_intra=0 / bframes=8 / b_pyramid=2 / b_adapt=2 / b_bias=0 / direct=1 / weightb=0 / open_gop=0 / weightp=2 / keyint=230 / keyint_min=23 / scenecut=40 / intra_refresh=0 / rc=crf / mbtree=0 / crf=19.5 / qcomp=0.60 / qpmin=0 / qpmax=69 / qpstep=4 / ip_ratio=1.40 / pb_ratio=1.30 / aq=1:1.00
Language                                 : English
Default                                  : Yes
Forced                                   : No

Audio #1
ID                                       : 2
Format                                   : AC-3
Format/Info                              : Audio Coding 3
Mode extension                           : CM (complete main)
Format settings, Endianness              : Big
Codec ID                                 : A_AC3
Duration                                 : 1h 35mn
Bit rate mode                            : Constant
Bit rate                                 : 192 Kbps
Channel count                            : 2 channels
Channel positions                        : Front: L R
Sampling rate                            : 48.0 KHz
Bit depth                                : 16 bits
Compression mode                         : Lossy
Stream size                              : 131 MiB (1%)
Title                                    : MVO [Inter] 2.0 192 kbps [Hurtom-patriot2305]
Language                                 : Ukrainian
Default                                  : Yes
Forced                                   : No

Audio #2
ID                                       : 3
Format                                   : AC-3
Format/Info                              : Audio Coding 3
Mode extension                           : CM (complete main)
Format settings, Endianness              : Big
Codec ID                                 : A_AC3
Duration                                 : 1h 35mn
Bit rate mode                            : Constant
Bit rate                                 : 192 Kbps
Channel count                            : 2 channels
Channel positions                        : Front: L R
Sampling rate                            : 48.0 KHz
Bit depth                                : 16 bits
Compression mode                         : Lossy
Stream size                              : 131 MiB (1%)
Title                                    : DVO [1+1] 2.0 192 kbps [Hurtom-patriot2305]
Language                                 : Ukrainian
Default                                  : No
Forced                                   : No

Audio #3
ID                                       : 4
Format                                   : AC-3
Format/Info                              : Audio Coding 3
Mode extension                           : CM (complete main)
Format settings, Endianness              : Big
Codec ID                                 : A_AC3
Duration                                 : 1h 35mn
Bit rate mode                            : Constant
Bit rate                                 : 192 Kbps
Channel count                            : 2 channels
Channel positions                        : Front: L R
Sampling rate                            : 48.0 KHz
Bit depth                                : 16 bits
Compression mode                         : Lossy
Stream size                              : 131 MiB (1%)
Title                                    : DVO [Novyj] 2.0 192 kbps [Hurtom-patriot2305]
Language                                 : Ukrainian
Default                                  : No
Forced                                   : No

Audio #4
ID                                       : 5
Format                                   :
Format/Info                              : Digital Theater Systems
Mode                                     : 16
Format settings, Endianness              : Big
Codec ID                                 : A_DTS
Duration                                 : 1h 35mn
Bit rate mode                            : Constant
Bit rate                                 : 1 509 Kbps
Channel count                            : 6 channels
Channel positions                        : Front: L C R, Side: L R, LFE
Sampling rate                            : 48.0 KHz
Bit depth                                : 24 bits
Compression mode                         : Lossy
Stream size                              : 1.00 GiB (11%)
Title                                    : Original 5.1 1536 kbps
Language                                 : English
Default                                  : No
Forced                                   : No

Text
ID                                       : 6
Format                                   : UTF-8
Codec ID                                 : S_TEXT/UTF8
Codec ID/Info                            : UTF-8 Plain Text
Title                                    : Eng full
Language                                 : English
Default                                  : No
Forced                                   : No




Джерела та подяки:
ріп відео, оригінальні звук та субтитри - STarankov/msltel (рутор); українські доріжки - patriot2305 - зведення, xslim (1, 3), Hulk1987 (2) - запис з ТБ; український постер - Gelios (всі - Гуртом).


ЗАЛИШАЙТЕСЬ ЯКОМОГА ДОВШЕ НА РОЗДАЧІ!

СКАЧАВ САМ - ДАЙ СКАЧАТИ ІНШИМ


Срібний реліз (на рейтинг впливає 50% завантаженого)
 Трекер:    Зареєстрований   

Завантажити / скачати фільм українською



відео для новачків



 Зареєстрований:   2013-11-03 11:12
 Розмір:   9.45 GB 
 Оцінка фільму:   4.3/10 (Голосів: 17)
   
Інші релізи
praysu 
Забанено
Забанено


З нами з: 22.05.08
Востаннє: 13.11.13
Повідомлень: 119

2013-11-03 12:55  
Чудовий фільм, я навіть не очікував в кінці такого!
Ваш часовий пояс: GMT + 2 Години

Нова тема   Відповісти