Завантажити та скачати торренти українською


Лавлейс / Lovelace (2013) 720p Ukr/Eng

Нові коментарі

Нова тема   Відповісти
Автор Повідомлення
Sando7 
Відео Гуртом - запис з ТБ
Відео Гуртом - запис з ТБ


З нами з: 04.05.09
Востаннє: 08.12.16
Повідомлень: 840

2013-11-02 14:23  
Лавлейс / Lovelace (2013) 720p Ukr/Eng

Лавлейс / Lovelace (2013) 720p Ukr/Eng


Жанр: біографічний, драма
Країна: США



Кінокомпанія: Animus Films, Eclectic Pictures, Millennium Films
Режисер: Роб Епштейн / Rob Epstein, Джеффрі Фрідман / Jeffrey Friedman
Актори: Аманда Сейфрід / Amanda Seyfried, Пітер Сарсґаард / Peter Sarsgaard, Джуно Темпл / Juno Temple, Шерон Стоун / Sharon Stone, Роберт Патрік / Robert Patrick, Кріс Нот / Chris Noth, Адам Броді / Adam Brody та інші

Сюжет:
Біографія найвідомішої порноактриси Лінди Лавлейс. Щоб заробити подібну славу, їй потрібно було зіграти тільки в одному фільмі - «Глибоке горло». Все своє життя після цього вона присвятила боротьбі за права жінок.

Тривалість: 01:32:47
Якість:
Відео:
кодек:
розмір кадру: 1280 х 694
бітрейт: 6985 кб/с

Аудіо # 1:
мова: українська
переклад: багатоголосий закадровий
кодек: 5.1
бітрейт: 448 кб/с

Аудіо # 2:
мова: англійська
переклад: оригінал
кодек: 5.1
бітрейт: 448 кб/с
MediaInfo
Complete name : D:\Lovelace (2013) 720р [Ukr.Eng] [Hurtom].mkv
Format : Matroska
Format version : Version 1
File size : 5.10 GiB
Duration : 1h 32mn
Overall bit rate : 7 873 Kbps
Movie name : Lovelace.2013.BluRay.720p..-CHD
Encoded date : UTC 2013-11-02 12:04:49
Writing application : mkvmerge v2.4.1 ('Use Me') built on Dec 5 2008 18:30:05
Writing library : libebml v0.7.7 + libmatroska v0.8.1

Video
ID : 1
Format : AVC
Format/Info : Advanced Video Codec
Format profile : [email protected]
Format settings, CABAC : Yes
Format settings, ReFrames : 9 frames
Codec ID : V_MPEG4/ISO/AVC
Duration : 1h 32mn
Bit rate : 6 985 Kbps
Width : 1 280 pixels
Height : 694 pixels
Display aspect ratio : 1.85:1
Frame rate mode : Constant
Frame rate : 23.976 fps
Color space : YUV
Chroma subsampling : 4:2:0
Bit depth : 8 bits
Scan type : Progressive
Bits/(Pixel*Frame) : 0.328
Stream size : 4.42 GiB (87%)
Title : [email protected]
Writing library : core 138 r2356 a1d3d17
Encoding settings : cabac=1 / ref=9 / deblock=1:-3:-3 / analyse=0x3:0x113 / me=umh / subme=10 / psy=1 / psy_rd=1.00:0.05 / mixed_ref=1 / me_range=32 / chroma_me=1 / trellis=2 / 8x8dct=1 / cqm=0 / deadzone=21,11 / fast_pskip=0 / chroma_qp_offset=-2 / threads=18 / lookahead_threads=1 / sliced_threads=0 / nr=0 / decimate=1 / interlaced=0 / bluray_compat=0 / constrained_intra=0 / bframes=5 / b_pyramid=2 / b_adapt=2 / b_bias=0 / direct=3 / weightb=1 / open_gop=0 / weightp=2 / keyint=250 / keyint_min=23 / scenecut=40 / intra_refresh=0 / rc=2pass / mbtree=0 / bitrate=6985 / ratetol=1.0 / qcomp=0.70 / qpmin=0 / qpmax=69 / qpstep=4 / cplxblur=20.0 / qblur=0.5 / ip_ratio=1.40 / pb_ratio=1.30 / aq=2:1.00
Language : English
Default : Yes
Forced : No

Audio #1
ID : 2
Format : AC-3
Format/Info : Audio Coding 3
Mode extension : CM (complete main)
Format settings, Endianness : Big
Codec ID : A_AC3
Duration : 1h 32mn
Bit rate mode : Constant
Bit rate : 448 Kbps
Channel count : 6 channels
Channel positions : Front: L C R, Side: L R, LFE
Sampling rate : 48.0 KHz
Bit depth : 16 bits
Compression mode : Lossy
Stream size : 297 MiB (6%)
Title : Line UKR
Language : Ukrainian
Default : Yes
Forced : No

Audio #2
ID : 3
Format : AC-3
Format/Info : Audio Coding 3
Mode extension : CM (complete main)
Format settings, Endianness : Big
Codec ID : A_AC3
Duration : 1h 32mn
Bit rate mode : Constant
Bit rate : 448 Kbps
Channel count : 6 channels
Channel positions : Front: L C R, Side: L R, LFE
Sampling rate : 48.0 KHz
Bit depth : 16 bits
Compression mode : Lossy
Stream size : 297 MiB (6%)
Language : English
Default : No
Forced : No

Menu
00:00:00.000 : en:00:00:00.000
00:07:01.129 : en:00:07:01.129
00:14:09.057 : en:00:14:09.057
00:19:23.621 : en:00:19:23.621
00:25:14.471 : en:00:25:14.471
00:30:04.761 : en:00:30:04.761
00:38:55.124 : en:00:38:55.124
00:45:05.703 : en:00:45:05.703
00:51:05.062 : en:00:51:05.062
00:57:02.628 : en:00:57:02.628
01:03:56.124 : en:01:03:56.124
01:11:08.764 : en:01:11:08.764
01:19:39.692 : en:01:19:39.692
01:25:55.901 : en:01:25:55.901


Джерело:


 Трекер:    Зареєстрований   

Завантажити / скачати фільм українською



відео для новачків



 Зареєстрований:   2013-11-02 14:29
 Розмір:   5.1 GB 
 Оцінка фільму:   7.3/10 (Голосів: 6)
   
Інші релізи
   Лавлейс / Lovelace (2013) patriot2305  3 / 0   1.46 GB   2013-11-02 12:58 
ArteMiY 
Свій


З нами з: 08.07.08
Востаннє: 06.12.16
Повідомлень: 71

2014-05-29 12:05  
Як це я його пропустив Rolleyes (1)
Ваш часовий пояс: GMT + 2 Години

Нова тема   Відповісти