Завантажити та скачати торренти українською


Анти Голод Аква Молодь (Сезон 1) / Aqua Teen Hunger Force (Season 1), (2000-2002) Ukr/Eng

Нові коментарі

Нова тема   Відповісти
Останній раз роздавалося Кіндрат Книш (2016-12-04)
Автор Повідомлення
Кіндрат Книш 
VIP


З нами з: 13.02.13
Востаннє: 04.12.16
Повідомлень: 717

2013-11-01 20:52  
Анти Голод Аква Молодь (Сезон 1) / Aqua Teen Hunger Force (Season 1), (2000-2002) Ukr/Eng

Анти Голод Аква Молодь (Сезон 1) / Aqua Teen Hunger Force (Season 1), (2000-2002) Ukr/Eng


Жанр: анімація, комедія абсурду
Країна: США



Виробництво: Williams Street, Radical Axis
Автори ідеї: Дейв Вілліс, Метт Майелларо
Ролі озвучують: оригінал - Дана Снайдер, Кері Мінс, Дейв Вілліс, Метт Майелларо, Джордж Лав, Мартін Крокер; українською - Євген Малуха, Олександр Чмихалов, Катерина Брайковська

Сюжет:
Головні дійові особи анімаційного шоу - стаканчик з молочним коктейлем Майстер Шейк (Master Shake), пакетик картоплі-фрі Фрайлок (Frylock) і котлета М'ясун (Meatwad). Разом вони мешкають у будинку в Нью-Джерсі, де в них є сусід - представник homo sapiens Карл. У кожній серії герої мають справу з різноманітними персонажами, а в деяких епізодах навіть зі знаменитостями та історичними постатями. Зокрема, головними лиходіями мультсеріалу є Лунаніти - двійко прибульців з Місяця, котрі несуть із собою руйнування і гармидер, скоюють протизаконні вчинки та спонукають оточуючих потурати їхнім діянням. Серії не пов'язані між собою і практично не мають чіткого сенсу. Часто-густо вони закінчуються смертю чи каліцтвом головних персонажів або ж нищенням їхнього майна, втім, у наступних епізодах все повертається до попереднього стану.


Тривалість серії: ~11:00 (загалом серій: 18)
Перелік серій
1х01 - Rabbot (Крільбот)
1х02 - Escape From Leprechaupolis (Втеча з Лепрекополя)
1х03 - Bus of the Undead (Автобус-зомбі)
1х04 - Mayhem of the Mooninites (Нашестя Лунанітів)
1х05 - Balloonenstein (Кулькоштейн)
1х06 - Space Conflict From Beyond Pluto (Космічна загроза з Плутона)
1х07 - Ol' Drippy (Мокрий)
1х08 - Revenge of the Mooninites (Помста Лунанітів)
1х09 - MC Pee Pants (Ем Сі Обісцяні штани)
1х10 - Dumber Dolls (Довбануті ляльки)
1х11 - Bad Replicant (Кепський клон)
1х12 - Circus (Цирк)
1х13 - Love Mummy (Любіть мумію)
1х14 - Dumber Days (Мозок М'ясуна)
1х15 - Interfection (Інтернет-вірус)
1х16 - PDA (Кишеньковий помічник)
1х17 - Mail Order Bride (Наречена поштою)
1х18 - Cybernetic Ghost of Christmas Past From the Future (Кібернетичний привид різдвяного минулого з майбутнього)
Примітка: усі серії демонструвалися без вступної частини (виняток - четверта серія). У дев'ятій серії присутні чотири кількасекундні відтинки без перекладу - так показали на каналі.

Якість:
Відео:
кодек:
розмір кадру: 720х576
бітрейт: ~1500 кб/с

Аудіо # 1:
мова: українська
переклад: багатоголосий закадровий
кодек: 2.0
бітрейт: 192 кб/с

Аудіо # 2:
мова: англійська
переклад: оригінал
кодек: 2.0
бітрейт: 192 кб/с

Джерело озвучення:
Звіт MediaInfo
General
Complete name : E:\Cartoons\Aqua Teen Hunger Force\Season 1\Aqua Teen Hunger Force - s01e01.avi
Format : AVI
Format/Info : Audio Video Interleave
File size : 147 MiB
Duration : 10mn 22s
Overall bit rate : 1 978 Kbps
Writing application : VirtualDubMod 1.5.10.2 (build 2540/release)
Writing library : VirtualDubMod build 2540/release

Video
ID : 0
Format : MPEG-4 Visual
Format profile : Advanced [email protected]
Format settings, BVOP : 2
Format settings, QPel : Yes
Format settings, GMC : 3 warppoints
Format settings, Matrix : Default (H.263)
Codec ID :
Codec ID/Hint :
Duration : 10mn 22s
Bit rate : 1 580 Kbps
Width : 720 pixels
Height : 576 pixels
Display aspect ratio : 4:3
Frame rate : 25.000 fps
Original frame rate : 23.976 fps
Standard : PAL
Color space : YUV
Chroma subsampling : 4:2:0
Bit depth : 8 bits
Scan type : Progressive
Compression mode : Lossy
Bits/(Pixel*Frame) : 0.152
Stream size : 117 MiB (80%)
Writing library : 1.2.1 (UTC 2008-12-04)

Audio #1
ID : 1
Format : AC-3
Format/Info : Audio Coding 3
Mode extension : CM (complete main)
Format settings, Endianness : Big
Codec ID : 2000
Duration : 10mn 22s
Bit rate mode : Constant
Bit rate : 192 Kbps
Channel(s) : 2 channels
Channel positions : Front: L R
Sampling rate : 48.0 KHz
Bit depth : 16 bits
Compression mode : Lossy
Stream size : 14.2 MiB (10%)
Alignment : Split accross interleaves
Interleave, duration : 40 ms (1.00 video frame)
Interleave, preload duration : 500 ms
Title : Ukr

Audio #2
ID : 2
Format : AC-3
Format/Info : Audio Coding 3
Mode extension : CM (complete main)
Format settings, Endianness : Big
Codec ID : 2000
Duration : 10mn 22s
Bit rate mode : Constant
Bit rate : 192 Kbps
Channel(s) : 2 channels
Channel positions : Front: L R
Sampling rate : 48.0 KHz
Bit depth : 16 bits
Compression mode : Lossy
Stream size : 14.3 MiB (10%)
Alignment : Split accross interleaves
Interleave, duration : 40 ms (1.00 video frame)
Interleave, preload duration : 500 ms
Title : Eng
Скріншоти
Малуха і Чмихалов за роботою
Джерело:
Особиста оцінка: 10 - наша озвучка мене полонила Happy


 Трекер:    Зареєстрований   

Завантажити / скачати мультфільм українською



відео для новачків



 Зареєстрований:   2014-04-19 11:10
 Розмір:   2.65 GB 
 Оцінка мультсеріалу:   9/10 (Голосів: 10)
   
Кіндрат Книш 
VIP


З нами з: 13.02.13
Востаннє: 04.12.16
Повідомлень: 717

2014-04-19 11:12  
Торент оновлено - додано 10, 11, 15 і 16 серії.
djromantique 
Новенький


З нами з: 26.01.15
Востаннє: 26.01.15
Повідомлень: 1

2015-01-26 18:44  
Станьте на раздачу кто-то пожалуйста!
Ваш часовий пояс: GMT + 2 Години

Нова тема   Відповісти