Завантажити та скачати торренти українською


Телефонна будка / Phone Booth (2002) 720p 2xUkr/Eng

Нові коментарі

Нова тема   Відповісти
Автор Повідомлення
TNT.KOT 
Відео Гуртом - субтитрування
Відео Гуртом - субтитрування


З нами з: 17.03.12
Востаннє: 05.12.16
Повідомлень: 116

2013-10-30 10:10  
Телефонна будка / Phone Booth (2002) 720p 2xUkr/Eng

Телефонна будка / Phone Booth (2002) 720p 2xUkr/Eng


Жанр: трилер, детектив, кримінальний
Країна: США



Кінокомпанія: Fox 2000 Pictures,
Режисер: Джоель Шумахер / Joel Schumacher
Продюсер: Девід Цукер
Сценарист: Ларрі Коен
Актори: Колін Фаррелл / Colin Farrell, Кіфер Сазерленд / Kiefer Sutherland, Форест Вайтакер / Forest Whitaker, Рада Мітчел / Radha Mitchell, Кеті Голмс / Katie Holmes, Паула Джей Паркер / Paula Jai Parker, Аріан Варінг Еш / Arian Waring Ash, Тіа Тексада / Tia Texada, Джон Енос ІІІ / John Enos III, Річард Т. Джонс / Richard T. Jones, Кейт Ноббс / Keith Nobbs, Делл Юнт / Dell Yount, Джеймс МакДональд / James MacDonald, Джош Пайс / Josh Pais, Йорго Костянтин / Yorgo Constantine
Кошторис $ 13 млн.
Касові збори $ 97 млн.

Сюжет:
Один телефонний дзвінок може змінити все життя людини або навіть обірвати його. Герой фільму Стью Шеферд стає полоненим телефонної будки.
Що ви зробите, якщо почуєте, як в телефонній будці задзвонив телефон? Швидше за все, інстинктивно піднімете слухавку, хоча чудово знаєте, що хтось просто помилився номером. Ось і Стью здається, що на дзвінок треба обов'язково відповісти, а в результаті він виявляється втягнутим в жахливу гру. «Тільки поклади трубку, і ти - труп», - говорить йому невидимий співбесідник.
Цікаві факти
Ларрі Коен написав сценарій фільму за один місяць.
Майкл Бей міг стати режисером фільму.
Джаред Лето виконав невелику роль, але сцена з його участю була вирізана з фільму.
Не дивлячись на те, що у фільмі Кіфер Сазерленд з'являється менш ніж на три хвилини, на постерах і в титрах його прізвище йде другою за рахунком. Проте його голос ми чуємо протягом усього фільму.
Дія фільму відбувається в реальному часі - він триває рівно стільки, скільки тривають описувані в ньому події, як у телесеріалі «24», в якому знімається Кіфер Сазерленд.
Фільм був знятий за 10 днів, ще 2 дні зайняли підготовка і дозйомка.
Незважаючи на те, що дія фільму відбувається в Нью-Йорку, він знімався в центрі Лос-Анджелеса (на 5-ій вулиці між перехрестями з Бродвей-стріт і Спрінг-стріт). Це видно на деяких кадрах, в які потрапляють міські автобуси.
Снайперська гвинтівка маніяка (показана на мить в кінці фільму) - «Accuracy International AE». На ній встановлений оптичний приціл «Hensholdt» з підсвічуванням перехрестя.
У сцені, коли снайпер розповідає Стю про те, як він стежив за ним, можна побачити Кіфера Сазерленда, що йде за жертвою в темній вовняній шапочці.
За сценарієм, телефонна будка розташована на Західній 53-й вулиці поруч із 8-й авеню.
За словами режисера, фільм був знятий як ілюстрація того, що для хорошого кіно необов'язкові багатомільйонні бюджети і карколомні спецефекти.
Тривалість: 01:21:00
Якість:
Відео:
кодек:
розмір кадру: 1280 х 544
бітрейт: 6418 кб/с

Аудіо # 1:
мова: українська
переклад: професійний дубльований
кодек: 2.0
бітрейт: 192 кб/с
Джерело озвучення:


Аудіо # 2:
мова: українська
переклад: багатоголосий закадровий
кодек: 2.0
бітрейт: 192 кб/с
Джерело озвучення:

Аудіо # 3:
мова: англійська
переклад: оригінал
кодек: 5.1
бітрейт: 640 кб/с
MediaInfo
General
Unique ID : 180257068723210966658399425837981892966 (0x879C3FA67CD6DA8593FC138D8BCE0166)
Complete name : E:\Phone Booth (2002) [2xUkr ] 720p.mkv
Format : Matroska
Format version : Version 4 / Version 2
File size : 4.30 GiB
Duration : 1h 21mn
Overall bit rate : 7 593 Kbps
Movie name : Phone Booth (2002)
Encoded date : UTC 2013-10-30 07:13:33
Writing application : mkvmerge v6.4.1 ('Omega Point') built on Oct 3 2013 16:06:16
Writing library : libebml v1.3.0 + libmatroska v1.4.1

Video
ID : 1
Format : AVC
Format/Info : Advanced Video Codec
Format profile : [email protected]
Format settings, CABAC : Yes
Format settings, ReFrames : 11 frames
Codec ID : V_MPEG4/ISO/AVC
Duration : 1h 21mn
Bit rate : 6 418 Kbps
Width : 1 280 pixels
Height : 544 pixels
Display aspect ratio : 2.35:1
Frame rate mode : Constant
Frame rate : 23.976 fps
Color space : YUV
Chroma subsampling : 4:2:0
Bit depth : 8 bits
Scan type : Progressive
Bits/(Pixel*Frame) : 0.384
Stream size : 3.63 GiB (85%)
Title : -s3k
Writing library : core 120 r2120 0c7dab9
Encoding settings : cabac=1 / ref=11 / deblock=1:-2:-2 / analyse=0x3:0x133 / me=umh / subme=11 / psy=1 / psy_rd=1.00:0.05 / mixed_ref=1 / me_range=24 / chroma_me=1 / trellis=2 / 8x8dct=1 / cqm=0 / deadzone=21,11 / fast_pskip=0 / chroma_qp_offset=-3 / threads=3 / sliced_threads=0 / nr=0 / decimate=1 / interlaced=0 / bluray_compat=0 / constrained_intra=0 / bframes=11 / b_pyramid=2 / b_adapt=2 / b_bias=0 / direct=3 / weightb=1 / open_gop=0 / weightp=2 / keyint=250 / keyint_min=23 / scenecut=40 / intra_refresh=0 / rc_lookahead=60 / rc=crf / mbtree=1 / crf=17.0 / qcomp=0.60 / qpmin=0 / qpmax=69 / qpstep=4 / vbv_maxrate=50000 / vbv_bufsize=50000 / crf_max=0.0 / nal_hrd=none / ip_ratio=1.40 / aq=1:1.00
Language : English
Default : Yes
Forced : No

Audio #1
ID : 2
Format : AC-3
Format/Info : Audio Coding 3
Mode extension : CM (complete main)
Format settings, Endianness : Big
Codec ID : A_AC3
Duration : 1h 21mn
Bit rate mode : Constant
Bit rate : 192 Kbps
Channel(s) : 2 channels
Channel positions : Front: L R
Sampling rate : 48.0 KHz
Bit depth : 16 bits
Compression mode : Lossy
Stream size : 111 MiB (3%)
Default : Yes
Forced : No

Audio #2
ID : 3
Format : AC-3
Format/Info : Audio Coding 3
Mode extension : CM (complete main)
Format settings, Endianness : Big
Codec ID : A_AC3
Duration : 1h 21mn
Bit rate mode : Constant
Bit rate : 192 Kbps
Channel(s) : 2 channels
Channel positions : Front: L R
Sampling rate : 48.0 KHz
Bit depth : 16 bits
Compression mode : Lossy
Stream size : 111 MiB (3%)
Default : No
Forced : No

Audio #3
ID : 4
Format : AC-3
Format/Info : Audio Coding 3
Mode extension : CM (complete main)
Format settings, Endianness : Big
Codec ID : A_AC3
Duration : 1h 21mn
Bit rate mode : Constant
Bit rate : 640 Kbps
Channel(s) : 6 channels
Channel positions : Front: L C R, Side: L R, LFE
Sampling rate : 48.0 KHz
Bit depth : 16 bits
Compression mode : Lossy
Stream size : 371 MiB (8%)
Title : Dolby Digital 5.1
Language : English
Default : No
Forced : No

Menu
00:00:00.000 : en:The Last Phone Booth
00:03:42.973 : en:The Publicist
00:08:58.455 : en:A Free Pizza
00:10:20.370 : en:Pam
00:11:45.955 : en:The Caller
00:14:05.595 : en:Exposed
00:17:34.387 : en:Kelly
00:21:19.320 : en:Don't Hang Up
00:23:22.359 : en:The Others
00:25:01.417 : en:Leon's Girls
00:29:00.948 : en:Guilty
00:32:00.627 : en:The Cops
00:34:57.762 : en:Captain Ramey
00:39:19.440 : en:The Center of Attention
00:43:10.296 : en:The Cell Phone
00:45:54.502 : en:She's Not My Wife
00:47:50.534 : en:The Perfect Violation
00:51:44.059 : en:Hung Up
00:54:09.621 : en:The Odds Are Even
00:56:35.767 : en:Kelly or Pam?
00:58:09.486 : en:A Sniper Situation
01:00:58.238 : en:Trust Is the Key
01:03:53.204 : en:A Chance for Redemption
01:08:50.418 : en:The Man in 604
01:11:06.095 : en:A Familiar Face
01:12:30.555 : en:You'll Be Hearing From Me
01:14:06.067 : en:A Ringing Phone
01:15:02.456 : en:End Titles
Скріншоти


Подяка: за звукові доріжки пану karvai0

Джерело: &
Особиста оцінка: 8 - мені сподобалося


Срібний реліз (на рейтинг впливає 50% завантаженого)
 Трекер:    Зареєстрований   

Завантажити / скачати фільм українською



відео для новачків



 Зареєстрований:   2013-10-30 10:10
 Розмір:   4.3 GB 
 Оцінка фільму:   9.2/10 (Голосів: 13)
   
Інші релізи
   Телефонна будка / Phone Booth (2002) 2xUkr/Eng | Sub Eng karvai0  5 / 0   1.46 GB   2013-01-29 13:33 
Pokemonator 
Поважний учасник


З нами з: 18.06.08
Востаннє: 30.11.16
Повідомлень: 167

2013-10-30 11:50  
шикарний фільм! спонукає замислитись про життєві цінності...
seroga13 
VIP


З нами з: 22.06.09
Востаннє: 05.12.16
Повідомлень: 257

2013-11-01 17:53  
Класний фільм!!!
Ваш часовий пояс: GMT + 2 Години

Нова тема   Відповісти