Завантажити та скачати торренти українською


Тихоокеанський рубіж / Pacific Rim (2013) 720p-mini

Нові коментарі

Нова тема   Відповісти
Автор Повідомлення
Drool 
VIP


З нами з: 17.04.10
Востаннє: 06.12.16
Повідомлень: 1264

2013-10-29 13:53  
Тихоокеанський рубіж / Pacific Rim (2013) 720p-mini

Жанр: бойовик, пригодницький, фантастика
Країна: США



Кінокомпанія: Warner Bros., Legendary Pictures
Режисер: Гільєрмо Дель Торо
Актори: Чарлі Ханнем, Ідріс Ельба, Рінко Кікуті, Роберт Казінскі, Макс Мартіні, Чарлі Дей, Берн Ґорман, Кліфтон Коллінз мол., Рон Перлман, Дієго Клаттенхофф

Сюжет:
Коли з морських глибин піднялися легіони чудовиськ, відомих як Кайдзу, почалася війна, якій судилося забрати мільйони життів і звести «людські ресурси» майже до нуля всього за кілька років. Щоб битися з прибульцями, було створено спеціальну зброю: величезні роботи, названі Джегерами, які керувалися одночасно двома пілотами. Але навіть Джегери виявляються майже безсилі перед могутніми Кайдзу.
На межі поразки захисники людства звертаються до двох вельми сумнівних героїв - колишнього пілота і недосвідченого стажиста - які мають об'єднатися, щоб повести в бій єдиного уцілівшого Джегера.


Тривалість: 02:11:14
Якість: 720p-mini
Відео:
кодек:
розмір кадру: 1280x720
бітрейт: 2710 кб/с

Аудіо:
мова: українська
переклад: професійний дубльований
кодек: 5.1
бітрейт: 640 кб/с

Субтитри:
мова: українська (форсовані)
тип: програмні (м'які)
формат: *.srt

Джерело озвучення:
MediaInfo
General
Unique ID : 2343698655893102072925776396044283408 (0x1C36143E45D5D21D5B98210A8892E10)
Complete name : ./Pacific.Rim.2013.Ukr.Dub..720p-mini.mkv
Format : Matroska
Format version : Version 4 / Version 2
File size : 3.07 GiB
Duration : 2h 11mn
Overall bit rate : 3 350 Kbps
Movie name : Тихоокеанський рубіж / Pacific Rim (2013) 720p-mini | video by ViSiON
Encoded date : UTC 2010-02-22 21:41:31
Writing application : mkvmerge v6.1.0 ('Old Devil') built on Apr 14 2013 12:26:22
Writing library : libebml v1.3.0 + libmatroska v1.4.0

Video
ID : 1
Format : AVC
Format/Info : Advanced Video Codec
Format profile : [email protected]
Format settings, CABAC : Yes
Format settings, ReFrames : 5 frames
Codec ID : V_MPEG4/ISO/AVC
Duration : 2h 11mn
Bit rate : 2 710 Kbps
Width : 1 280 pixels
Height : 720 pixels
Display aspect ratio : 16:9
Frame rate : 23.976 fps
Color space : YUV
Chroma subsampling : 4:2:0
Bit depth : 8 bits
Scan type : Progressive
Bits/(Pixel*Frame) : 0.123
Stream size : 2.42 GiB (79%)
Title : Тихоокеанський рубіж / Pacific Rim (2013) 720p-mini | video by ViSiON
Writing library : core 125 r2200 999b753
Encoding settings : cabac=1 / ref=5 / deblock=1:1:0 / analyse=0x3:0x113 / me=umh / subme=8 / psy=1 / psy_rd=1.00:0.15 / mixed_ref=1 / me_range=16 / chroma_me=1 / trellis=1 / 8x8dct=1 / cqm=0 / deadzone=21,11 / fast_pskip=1 / chroma_qp_offset=-1 / threads=12 / lookahead_threads=2 / sliced_threads=0 / nr=1 / decimate=1 / interlaced=0 / bluray_compat=0 / constrained_intra=0 / bframes=3 / b_pyramid=2 / b_adapt=2 / b_bias=0 / direct=3 / weightb=1 / open_gop=0 / weightp=2 / keyint=250 / keyint_min=23 / scenecut=40 / intra_refresh=0 / rc_lookahead=50 / rc=2pass / mbtree=1 / bitrate=2710 / ratetol=1.0 / qcomp=0.60 / qpmin=0 / qpmax=69 / qpstep=4 / cplxblur=20.0 / qblur=0.5 / ip_ratio=1.40 / aq=1:1.10
Default : Yes
Forced : No

Audio
ID : 2
Format : AC-3
Format/Info : Audio Coding 3
Mode extension : CM (complete main)
Codec ID : A_AC3
Duration : 2h 11mn
Bit rate mode : Constant
Bit rate : 640 Kbps
Channel(s) : 6 channels
Channel positions : Front: L C R, Side: L R, LFE
Sampling rate : 48.0 KHz
Bit depth : 16 bits
Compression mode : Lossy
Stream size : 601 MiB (19%)
Title : Рідна мова ( 5.1 @ 640 kbps)
Language : Ukrainian
Default : Yes
Forced : Yes

Text
ID : 3
Format : UTF-8
Codec ID : S_TEXT/UTF8
Codec ID/Info : UTF-8 Plain Text
Title : Forced
Language : Ukrainian
Default : Yes
Forced : Yes
Скріншоти




Джерело: відеоряд взято з іноземного ріпу від RG ViSiON
Величезна подяка за звукову доріжку пану 11FrYkT
Особиста оцінка: 10 - без зайвих вагань рекомендую всім!


 Трекер:    Зареєстрований   

Завантажити / скачати фільм українською



відео для новачків



 Зареєстрований:   2013-11-10 00:29
 Розмір:   3.07 GB 
 Оцінка фільму:   9.7/10 (Голосів: 50)
   
Drool 
VIP


З нами з: 17.04.10
Востаннє: 06.12.16
Повідомлень: 1264

2013-10-29 14:55  
Велика подяка пану lnkvisitor за надані технічні засоби та інтернет-канал Happy
Stepan2009 
VIP


З нами з: 18.09.10
Востаннє: 06.12.16
Повідомлень: 322

2013-10-29 15:03  
люблю 720p-mini. Дякую.
Drool 
VIP


З нами з: 17.04.10
Востаннє: 06.12.16
Повідомлень: 1264

2013-10-29 15:06  
Stepan2009 написано:
люблю 720p-mini. Дякую.

Шкода, що ріпери їх не дуже люблять Sad (1) Жирніють Happy

lnkvisitor 
Новенький


З нами з: 15.09.13
Востаннє: 31.10.16
Повідомлень: 9

2013-10-29 15:16  
Drool написано:
Велика подяка пану lnkvisitor за надані технічні засоби та інтернет-канал

Коли є можливість, чому б не допомогти.

bot 
робот


З нами з: 30.09.07
Востаннє: 26.05.05
Повідомлень: 16004

2013-11-09 23:57  
Тему перенесено з Фільми в HD до форуму Анонси релізів


Drool

bot 
робот


З нами з: 30.09.07
Востаннє: 26.05.05
Повідомлень: 16004

2013-11-10 00:28  
Тему перенесено з Анонси релізів до форуму Фільми в HD


Drool

Drool 
VIP


З нами з: 17.04.10
Востаннє: 06.12.16
Повідомлень: 1264

2013-11-10 00:35  
Велика подяка пану lnkvisitor за надані технічні засоби та інтернет-канал Happy

Додано через 4 хвилини 42 секунди:

Змінено звукову доріжку на ліцензійну 5.1 640 kbps!

Gaydamaka1 
Новенький


З нами з: 22.05.12
Востаннє: 06.12.16
Повідомлень: 2

2013-12-20 00:25  
Фільм бомба!
andriec10 
Новенький


З нами з: 12.10.12
Востаннє: 04.12.16
Повідомлень: 8

2013-12-22 17:27  
)класний
harley_ua 
Новенький


З нами з: 14.01.10
Востаннє: 03.12.16
Повідомлень: 13

2015-08-05 02:29  
Господи Боже милий!!! Такої ТУФТИ не бачив давно... Дико шкода двох втрачених годин. Годзило-армагедоно-трансформеро-вольтронний екшен з елементами деградуючого кретинізму...
Drool 
VIP


З нами з: 17.04.10
Востаннє: 06.12.16
Повідомлень: 1264

2015-08-05 14:47  
harley_ua написано:
Дико шкода двох втрачених годин

Тобто, щоб зрозуміти, що це "туфта" - знадобилось аж 2 години!? Wide grin

Ua.bos_01 
VIP


З нами з: 22.06.15
Востаннє: 05.12.16
Повідомлень: 1291

2015-08-18 11:35  
Ну не знаю... З одного боку фільм зроблений добре, а з іншого вже давно застаріла тема та американський пафос. Переглянути можна.
Ваш часовий пояс: GMT + 2 Години

Нова тема   Відповісти