Завантажити та скачати торренти українською


Людина зі сталі / Man of Steel (2013) AVC

Нові коментарі

Нова тема   Відповісти
Останній раз роздавалося mu4a4i (2016-12-06)
Автор Повідомлення
Drool 
VIP


З нами з: 17.04.10
Востаннє: 05.12.16
Повідомлень: 1263

2013-10-28 11:07  
Людина зі сталі / Man of Steel (2013) AVC
Альтернативний постер

Жанр: екшн, пригодницький, фантастика
Країна: США



Кінокомпанія: Warner Bros., Legendary Pictures, Syncopy
Режисер: Зак Снайдер
Актори: Генрі Кавілл, Емі Адамс, Майкл Шеннон, Кевін Костнер, Дайан Лейн, Лоренс Фішберн

Сюжет:
Кларк Кент (Кел-Ел) - молодий журналіст, який відчуває себе чужим через свою неймовірну силу. Багато років тому він був відправлений на Землю з розвиненої планети Криптон, і тепер задається питанням: навіщо?

Вихований прийомними батьками Мартою і Джонатаном Кентами, Кларк знає: мати надздібності - значить приймати складні рішення. Але коли людство найбільше потребує стабільності, воно піддається нападу. Чи зможе герой відновити мир, або скористається своєю силою для того, щоб остаточно його зруйнувати?

Кларк повинен стати супергероєм відомим як «Супермен», щоб вселяти надію в серця людей і захищати тих, кого він любить.


Тривалість: 02:23:03
Якість: AVC
Відео:
кодек:
розмір кадру: 720x300
бітрейт: 1762 кб/с
crf: 19

Аудіо:
мова: українська
переклад: професійний дубльований
кодек: 5.1
бітрейт: 384 кб/с

Джерело озвучення:


Субтитри:
мова: українська
тип: програмні (м'які) форсовані (написи)
формат: *.srt
Info
[info]: frame I:1628 Avg QP:17,26 size: 34136
[info]: frame P:50723 Avg QP:18,85 size: 16805
[info]: frame B:153422 Avg QP:21,55 size: 6672
[info]: consecutive B-frames: 3,7% 5,7% 9,2% 26,9% 18,5% 22,3% 5,3% 2,9% 3,8% 1,7%
[info]: mb I I16..4: 14,6% 55,2% 30,3%
[info]: mb P I16..4: 2,2% 16,7% 4,6% P16..4: 23,2% 29,3% 12,1% 4,0% 0,7% skip: 7,2%
[info]: mb B I16..4: 0,1% 2,7% 0,7% B16..8: 32,9% 20,7% 4,2% direct: 8,1% skip:30,6% L0:37,5% L1:41,5% BI:21,0%
[info]: 8x8 transform intra:71,4% inter:50,4%
[info]: direct mvs spatial:99,9% temporal:0,1%
[info]: coded y,uvDC,uvAC intra: 93,3% 83,8% 60,9% inter: 34,8% 19,9% 3,5%
[info]: i16 v,h,dc,p: 7% 8% 15% 70%
[info]: i8 v,h,dc,ddl,ddr,vr,hd,vl,hu: 9% 11% 7% 9% 12% 12% 13% 12% 15%
[info]: i4 v,h,dc,ddl,ddr,vr,hd,vl,hu: 11% 9% 6% 9% 15% 13% 14% 11% 14%
[info]: i8c dc,h,v,p: 38% 27% 16% 19%
[info]: Weighted P-Frames: Y:29,9% UV:21,2%
[info]: ref P L0: 53,8% 13,1% 15,7% 6,4% 4,0% 2,8% 2,2% 1,4% 0,5% 0,1%
[info]: ref B L0: 84,1% 7,8% 3,6% 1,8% 1,2% 0,9% 0,5%
[info]: ref B L1: 94,0% 6,0%
[info]: kb/s:1800,44
MediaInfo
General
Unique ID : 188024655254054694694080619655573060195 (0x8D743B3BF618D0D5225F562F8130BA63)
Complete name : /home/drool/Документы/Видео/Man.of.Steel.2013.Ukr.Dub.AVC.UAGet.mkv
Format : Matroska
File size : 2.19 GiB
Duration : 2h 23mn
Overall bit rate : 2 190 Kbps
Writing application : HandBrake rev0
Writing library : libmkv 0.6.5

Video
ID : 1
Format : AVC
Format/Info : Advanced Video Codec
Format profile : [email protected]
Format settings, CABAC : Yes
Format settings, ReFrames : 8 frames
Codec ID : V_MPEG4/ISO/AVC
Duration : 2h 23mn
Bit rate : 1 762 Kbps
Width : 720 pixels
Height : 300 pixels
Display aspect ratio : 2.40:1
Frame rate mode : Variable
Frame rate : 23.976 fps
Color space : YUV
Chroma subsampling : 4:2:0
Bit depth : 8 bits
Scan type : Progressive
Bits/(Pixel*Frame) : 0.340
Stream size : 1.76 GiB (80%)
Writing library : core 135 r2345 f0c1c53
Encoding settings : cabac=1 / ref=9 / deblock=1:-3:-3 / analyse=0x3:0x133 / me=umh / subme=11 / psy=1 / psy_rd=1,00:0,20 / mixed_ref=1 / me_range=32 / chroma_me=1 / trellis=2 / 8x8dct=1 / cqm=0 / deadzone=21,11 / fast_pskip=0 / chroma_qp_offset=-3 / threads=6 / lookahead_threads=1 / sliced_threads=0 / nr=0 / decimate=1 / interlaced=0 / bluray_compat=0 / constrained_intra=0 / bframes=9 / b_pyramid=1 / b_adapt=2 / b_bias=0 / direct=3 / weightb=1 / open_gop=0 / weightp=2 / keyint=240 / keyint_min=24 / scenecut=40 / intra_refresh=0 / rc=crf / mbtree=0 / crf=19,0 / qcomp=1,00 / qpmin=0 / qpmax=69 / qpstep=4 / ip_ratio=1,40 / pb_ratio=1,30 / aq=2:0,60
Language : English
Color primaries : BT.709-5, BT.1361, IEC 61966-2-4, SMPTE RP177
Transfer characteristics : BT.709-5, BT.1361
Matrix coefficients : BT.709-5, BT.1361, IEC 61966-2-4 709, SMPTE RP177

Audio
ID : 2
Format : AC-3
Format/Info : Audio Coding 3
Mode extension : CM (complete main)
Codec ID : A_AC3
Duration : 2h 23mn
Bit rate mode : Constant
Bit rate : 384 Kbps
Channel(s) : 6 channels
Channel positions : Front: L C R, Side: L R, LFE
Sampling rate : 48.0 KHz
Bit depth : 16 bits
Compression mode : Lossy
Stream size : 393 MiB (18%)
Language : Ukrainian

Text
ID : 3
Format : UTF-8
Codec ID : S_TEXT/UTF8
Codec ID/Info : UTF-8 Plain Text
Language : Ukrainian
Скріншоти




Реліз від:
Особиста оцінка: 10 - без зайвих вагань рекомендую всім!


 Трекер:    Зареєстрований   

Завантажити / скачати фільм українською



відео для новачків



 Зареєстрований:   2013-11-01 07:56
 Розмір:   2.19 GB 
 Оцінка фільму:   8.9/10 (Голосів: 28)
   
bot 
робот


З нами з: 30.09.07
Востаннє: 26.05.05
Повідомлень: 16002

2013-10-28 11:07  
Тему перенесено з Фільми до форуму Анонси релізів


Drool

Drool 
VIP


З нами з: 17.04.10
Востаннє: 05.12.16
Повідомлень: 1263

2013-10-28 11:12  
Чи потрібен такий реліз?
omm 
Відео Гуртом - фільмокрай
Відео Гуртом - фільмокрай


З нами з: 12.06.12
Востаннє: 05.12.16
Повідомлень: 2066

2013-10-28 16:46  
Звук з DVD мабуть. Чи блурей вийшов?
Dimatri 
Новенький


З нами з: 28.10.13
Востаннє: 05.01.16
Повідомлень: 1

2013-10-28 18:13  
як скачати
Drool 
VIP


З нами з: 17.04.10
Востаннє: 05.12.16
Повідомлень: 1263

2013-10-28 18:51  
omm написано:
Звук з DVD мабуть. Чи блурей вийшов?

Ні, то я промазав. Звук з DVD.

Додано через 33 секунди:

Dimatri написано:
як скачати

Поки що ніяк, це анонс. Чому й запитав - чи потрібен такий реліз. Буде хтось його качати?

crasy_dog 
Частий відвідувач


З нами з: 06.06.10
Востаннє: 24.11.16
Повідомлень: 30

2013-10-28 18:58  
Drool
Було б добре з більшим розширенням зробити, та якщо не буде, то все одно це скачаю.
Фільм дуже класний і давно хотів скачати у хорошій якості та переглянути ще раз.

Drool 
VIP


З нами з: 17.04.10
Востаннє: 05.12.16
Повідомлень: 1263

2013-10-28 19:25  
Так є AVC на 960x400, 720p та вище. Цей реліз я хотів зробити на противагу AVI-шному, тільки .
380973449186 
Новенький


З нами з: 01.10.13
Востаннє: 02.01.15
Повідомлень: 4

2013-10-29 23:42  
коли реліз
KrolliK 
Новенький


З нами з: 11.01.11
Востаннє: 04.12.16
Повідомлень: 2

2013-10-30 03:20  
Чекаю з нетерпінням, вже хотів москальською качати
Drool 
VIP


З нами з: 17.04.10
Востаннє: 05.12.16
Повідомлень: 1263

2013-10-30 07:51  
Нажаль, в нашій старій будівлі вчора вже двічі вибивав старий пакетник, і я двічі починав знову кодування (прохолодно, народ в кабінетах вмикає кондиціонери та каміни для опалення). Якщо не виб'є - завтра вранці, бо сьогодні до кінця робочого дня не встигне.
bot 
робот


З нами з: 30.09.07
Востаннє: 26.05.05
Повідомлень: 16002

2013-11-01 07:55  
Тему перенесено з Анонси релізів до форуму Художні фільми


Drool

bot 
робот


З нами з: 30.09.07
Востаннє: 26.05.05
Повідомлень: 16002

2013-11-01 09:47  
Тему перенесено з Художні фільми до форуму Фільми


Drool

Ваш часовий пояс: GMT + 2 Години

Нова тема   Відповісти