Завантажити та скачати торренти українською


Воанергес - Гай "Да" Маки (2008) [WV] | Rock/Neofolk

Нові коментарі

Нова тема   Відповісти
Автор Повідомлення
ssTAss 
Модератор музики


З нами з: 05.07.08
Востаннє: 08.12.16
Повідомлень: 10947

2013-10-27 19:38  
Воанергес - Гай "Да" Маки (2008) [WV] | Rock/Neofolk



Стиль: Neofolk, Gospel, Rock
Країна, місто: Україна, м. Київ
Сайти: Офіційний сайт
Видавець: Comp music/EMI records
Виконавці:
Макогон Роман: клавіші, сопілки, тилинка, зозулька, бугай, дрючок inF, спів.
Огороднік Валерій: гітара, дримба, зозулька, деркач, спів.
Бень Генадій: труба, флюгельгорн, ріжок, сопілка, зозулька, дрючок inB, спів.
Усков Андрій: бас-гітара, спів.
Янківський Валентин: барабани
Пісні:
    1. Думбо-дідай-бо... (short)
    2. Вийду в долину
    3. За обрієм
    4. Скіфія
    5. Сон
    6. Псалом новий
    7. Блажен муж
    8. Весна
    9. Притча про дерево
    10. Думбо-дідай-бо...
    11. ЩедРОК
    12. Колядка (jungle remix)
log
Exact Audio Copy V1.0 beta 3 from 29. August 2011

EAC extraction logfile from 20. March 2013, 23:06

Воанергес / Гай "Да" Маки

Used drive : SAMSUNG CD-ROM SC-152C Adapter: 0 ID: 0

Read mode : Secure
Utilize accurate stream : Yes
Defeat audio cache : Yes
Make use of C2 pointers : No

Read offset correction : 600
Overread into Lead-In and Lead-Out : No
Fill up missing offset samples with silence : Yes
Delete leading and trailing silent blocks : No
Null samples used in CRC calculations : Yes
Used interface : Native Win32 interface for Win NT & 2000

Used output format : User Defined Encoder
Selected bitrate : 1024 kBit/s
Quality : High
Add ID3 tag : No
Command line compressor : C:\Blade\Programs\wavpack-4.60.1\wavpack.exe
Additional command line options : -hlmx2 %source% %dest%

TOC of the extracted CD

Track | Start | Length | Start sector | End sector
---------------------------------------------------------
1 | 0:00.00 | 3:37.31 | 0 | 16305
2 | 3:37.31 | 4:26.68 | 16306 | 36323
3 | 8:04.24 | 4:23.36 | 36324 | 56084
4 | 12:27.60 | 2:59.71 | 56085 | 69580
5 | 15:27.56 | 4:09.00 | 69581 | 88255
6 | 19:36.56 | 2:59.35 | 88256 | 101715
7 | 22:36.16 | 3:41.67 | 101716 | 118357
8 | 26:18.08 | 5:14.35 | 118358 | 141942
9 | 31:32.43 | 5:13.64 | 141943 | 165481
10 | 36:46.32 | 4:23.62 | 165482 | 185268
11 | 41:10.19 | 6:15.48 | 185269 | 213441
12 | 47:25.67 | 4:00.43 | 213442 | 231484

Range status and errors

Selected range

Filename C:\Blade\music\work\Voanerges - 2008 - Gay Da Maky (Comp Music, 5099 9 206693 2 4)\Voanerges - 2008 - Gay Da Maky (Comp Music, 5099 9 206693 2 4).wav

Peak level 100.0 %
Extraction speed 1.3 X
Range quality 99.9 %
Test CRC F2CC4A67
Copy CRC F2CC4A67
Copy OK

No errors occurred

AccurateRip summary

Track 1 not present in database
Track 2 not present in database
Track 3 not present in database
Track 4 not present in database
Track 5 not present in database
Track 6 not present in database
Track 7 not present in database
Track 8 not present in database
Track 9 not present in database
Track 10 not present in database
Track 11 not present in database
Track 12 not present in database

None of the tracks are present in the AccurateRip database

End of status report

---- CUETools DB Plugin V2.1.3

[CTDB TOCID: dBNpnmVTOBzxabf8c9yEF0CHebk-] disk not present in database, Submit result: database access error: The request was aborted: The request was canceled.

==== Log checksum BA9B61BBADFA8C16BB1BE01C185AE73835FFD882EE661E12049AF7C0A17009C2 ====
fooCDtect
fooCDtect - foobar2000 + auCDtect, baralgin.

auCDtect: CD records authenticity detector, version 0.8.2
Copyright (c) 2004 Oleg Berngardt. All rights reserved.
Copyright (c) 2004 Alexander Djourik. All rights reserved.

mode: 0

===========================================
Track: 01 - Думбо-дідай-бо... (short)
Quality: CDDA 100%
===========================================
Track: 02 - Вийду в долину
Quality: CDDA 100%
===========================================
Track: 03 - За обрієм
Quality: CDDA 99%
===========================================
Track: 04 - Скіфія
Quality: CDDA 100%
===========================================
Track: 05 - Сон
Quality: CDDA 100%
===========================================
Track: 06 - Псалом новий
Quality: CDDA 100%
===========================================
Track: 07 - Блажен муж
Quality: CDDA 100%
===========================================
Track: 08 - Весна
Quality: CDDA 100%
===========================================
Track: 09 - Притча про дерево
Quality: CDDA 99%
===========================================
Track: 10 - Думбо-дідай-бо...
Quality: CDDA 100%
===========================================
Track: 11 - ЩедРОК
Quality: CDDA 100%
===========================================
Track: 12 - Колядка (jungle remix)
Quality: CDDA 100%
===========================================
Тривалість: 00:51:26
Мова: українська
Аудіо-кодек: WavPack
Бітрейт: 868 кб/с
Джерело: нетлаб
Додаткова інформація:
Що і казати – порадував Воанергес новою роботою. Можливо, справа у тому, що перший альбом, "Злата Врата", складався з речей, які вже видавалися раніше – а тепер маємо побачення з матеріалом більш новим, свіжим. А можливо, просто за час, що минув, у хлопців дещо змінилося, викристалізувалося в самій творчій манері. Як би там не було, а звучить нова робота гурту дійсно приємно. Якщо раніше однією з головних рис можна було б назвати молоду бадьорість, то зараз – з’являється вже легкість, притаманна людям зрілим. Жодного явного поспіху, впевнені рухи, чіткі лінії, яскраві кольори – але природні, не штучні. В цих яскравих спалахах немає дисонансу – тому вони привертають увагу, і при цьому не втомлюють. Зовнішнього драйву тепер начебто і менше, але внутрішня сила стала більш відчутною – і вона чіпляє глибше, ніж звичайний драйв. Саме тому весь альбом слухається легко, смачно, на єдиному подихові. Втім, краще переконайтеся в цьому самі.


Якщо Ви справді бажаєте підтримати українське - після прослуховування, якщо музика вам сподобалась,
придбайте ліцензійний диск.
Підтримаймо вітчизняних виконавців!


Срібний реліз (на рейтинг впливає 50% завантаженого)
 Трекер:    Зареєстрований   

Завантажити / скачати українську музику



відео для новачків



 Зареєстрований:   2013-10-27 19:38
 Розмір:   371 MB 
 Оцінка музики:   6.6/10 (Голосів: 8)
   
ssTAss 
Модератор музики


З нами з: 05.07.08
Востаннє: 08.12.16
Повідомлень: 10947

2013-10-27 19:40  
Ваш часовий пояс: GMT + 2 Години

Нова тема   Відповісти