Завантажити та скачати торренти українською


Озброєні та небезпечні [Театральна версія] / The Heat (2013) [Theatrical Cut] 1080p Ukr/Eng | Sub Ukr/Eng

Нові коментарі

Нова тема   Відповісти
Останній раз роздавалося ratbol (2016-09-16)
Автор Повідомлення
seroga13 
VIP


З нами з: 22.06.09
Востаннє: 03.12.16
Повідомлень: 257

2013-10-26 16:27  
Озброєні та небезпечні [Театральна версія] / The Heat (2013) [Theatrical Cut] 1080p Ukr/Eng | Sub Ukr/Eng

Озброєні та небезпечні [Театральна версія] / The Heat (2013) [Theatrical Cut] 1080p Ukr/Eng | Sub Ukr/Eng


Жанр: комедія
Країна: США



Кінокомпанія: Twentieth Century Fox Film Corporation
Режисер: Пол Файг
Актори: Сандра Баллок, Мелісса МакКарті, Таран Кіллем, Майкл Рапапорт, Томас Ф. Вілсон, Кейтлін Олсен, Тоні Хейл та інші.

Сюжет:
Агентові ФБР і Бостонському поліцейському довірено відповідальне завдання: вийти на слід і знешкодити небезпечного злочинця. І це навіть добре, що копи - жінки, адже бандит-то - російський. А непередбачуваності російської кмітливості можна протиставити тільки настільки ж непередбачувану жіночу логіку.


Тривалість: 01:57:04
Якість:
Відео:
кодек:
розмір кадру: 1920x800
бітрейт: 8403 кб/с

Аудіо # 1:
мова: українська
переклад: професійний дубльований
кодек: 5.1
бітрейт: 448 кб/с

Аудіо # 2:
мова: англійська
переклад: оригінал
кодек: 5.1
бітрейт: 384 кб/с

Субтитри #1:
мова: українська
тип: програмні (м'які)
формат: *.srt

Субтитри #2:
мова: англійська
тип: програмні (м'які)
формат: *.srt

Джерело:
MediaInfo
Format : Matroska
Format version : Version 4 / Version 2
File size : 7.55 GiB
Duration : 1h 57mn
Overall bit rate : 8 789 Kbps
Encoded date : UTC 2013-10-25 06:15:19
Writing application : mkvmerge v6.4.1 ('Omega Point') built on Sep 16 2013 22:05:10
Writing library : libebml v1.3.0 + libmatroska v1.4.1

Video#1
ID : 1
Format : AVC
Format/Info : Advanced Video Codec
Format profile : [email protected]
Format settings, CABAC : Yes
Format settings, ReFrames : 5 frames
Codec ID : V_MPEG4/ISO/AVC
Duration : 1h 57mn
Bit rate : 8 403 Kbps
Width : 1 920 pixels
Height : 800 pixels
Display aspect ratio : 2.40:1
Frame rate mode : Constant
Frame rate : 23.976 fps
Color space : YUV
Chroma subsampling : 4:2:0
Bit depth : 8 bits
Scan type : Progressive
Bits/(Pixel*Frame) : 0.228
Stream size : 6.73 GiB (94%)
Writing library : core 138 r2359+704+48 3f879a0 tMod [[email protected] X86_64]
Encoding settings : cabac=1 / ref=5 / deblock=1:-3:-3 / analyse=0x3:0x133 / me=umh / subme=11 / psy=1 / fade_compensate=0.00 / psy_rd=1.00:0.03 / mixed_ref=1 / me_range=32 / chroma_me=1 / trellis=2 / 8x8dct=1 / cqm=0 / deadzone=21,11 / fast_pskip=0 / chroma_qp_offset=-2 / threads=12 / lookahead_threads=1 / sliced_threads=0 / nr=0 / decimate=0 / interlaced=0 / bluray_compat=0 / constrained_intra=0 / fgo=0 / bframes=8 / b_pyramid=2 / b_adapt=2 / b_bias=0 / direct=3 / weightb=1 / open_gop=0 / weightp=2 / keyint=240 / keyint_min=23 / scenecut=40 / intra_refresh=0 / rc=2pass / mbtree=0 / bitrate=8403 / ratetol=1.0 / qcomp=0.60 / qpmin=0:0:0 / qpmax=69:69:69 / qpstep=4 / cplxblur=20.0 / qblur=0.5 / ip_ratio=1.40 / pb_ratio=1.30 / aq=1:0.80 / aq-sensitivity=10.00 / aq-factor=1.00:1.00:1.00 / aq2=0 / aq3=0
Language : English
Default : Yes
Forced : No

Audio#2
ID : 2
Format : AC-3
Format/Info : Audio Coding 3
Mode extension : CM (complete main)
Format settings, Endianness : Big
Codec ID : A_AC3
Duration : 1h 57mn
Bit rate mode : Constant
Bit rate : 448 Kbps
Channel count : 6 channels
Channel positions : Front: L C R, Side: L R, LFE
Sampling rate : 48.0 KHz
Bit depth : 16 bits
Compression mode : Lossy
Stream size : 322 MiB (4%)
Language : Ukrainian
Default : Yes
Forced : Yes

Audio #3
ID : 3
Format : AC-3
Format/Info : Audio Coding 3
Mode extension : CM (complete main)
Format settings, Endianness : Big
Codec ID : A_AC3
Duration : 1h 57mn
Bit rate mode : Constant
Bit rate : 384 Kbps
Channel(s) : 6 channels
Channel positions : Front: L C R, Side: L R, LFE
Sampling rate : 48.0 KHz
Bit depth : 16 bits
Compression mode : Lossy
Stream size : 375 MiB (8%)
Title : Original
Language : English
Default : No
Forced : No

Text #1
ID : 4
Format : UTF-8
Codec ID : S_TEXT/UTF8
Codec ID/Info : UTF-8 Plain Text
Title : Ukr full [BD CEE]
Language : Ukrainian
Default : No
Forced : No

Text #2
ID : 5
Format : UTF-8
Codec ID : S_TEXT/UTF8
Codec ID/Info : UTF-8 Plain Text
Title : Eng full
Language : English
Default : No
Forced : No

Menu
00:00:00.000 : en:Chapter 00
00:01:46.022 : en:Chapter 01
00:05:28.453 : en:Chapter 02
00:07:15.977 : en:Chapter 03
00:10:48.147 : en:Chapter 04
00:13:39.610 : en:Chapter 05
00:16:00.668 : en:Chapter 06
00:19:05.352 : en:Chapter 07
00:22:38.023 : en:Chapter 08
00:25:14.429 : en:Chapter 09
00:29:08.288 : en:Chapter 10
00:33:03.815 : en:Chapter 11
00:35:23.079 : en:Chapter 12
00:38:08.953 : en:Chapter 13
00:43:16.051 : en:Chapter 14
00:46:31.496 : en:Chapter 15
00:51:31.713 : en:Chapter 16
00:54:45.698 : en:Chapter 17
00:59:29.690 : en:Chapter 18
01:01:57.713 : en:Chapter 19
01:04:19.063 : en:Chapter 20
01:08:06.707 : en:Chapter 21
01:14:16.285 : en:Chapter 22
01:20:27.322 : en:Chapter 23
01:23:38.054 : en:Chapter 24
01:25:23.451 : en:Chapter 25
01:27:53.893 : en:Chapter 26
01:30:55.032 : en:Chapter 27
01:33:49.707 : en:Chapter 28
01:36:27.698 : en:Chapter 29
01:41:07.144 : en:Chapter 30
01:42:27.974 : en:Chapter 31
01:45:39.165 : en:Chapter 32
01:48:00.306 : en:Chapter 33
01:50:47.307 : en:Chapter 34
01:52:09.472 : en:Chapter 35
Скріншоти


Джерело:
Особиста оцінка: 8 - мені сподобалося


 Трекер:    Зареєстрований   

Завантажити / скачати фільм українською



відео для новачків



 Зареєстрований:   2013-11-17 11:50
 Розмір:   7.55 GB 
 Оцінка фільму:   10/10 (Голосів: 2)
   
igor911 
Відео Гуртом
Відео Гуртом


З нами з: 18.01.08
Востаннє: 04.12.16
Повідомлень: 5127

2013-10-26 17:16  
Чому не додали українські субтитри?
seroga13 
VIP


З нами з: 22.06.09
Востаннє: 03.12.16
Повідомлень: 257

2013-10-26 22:42  
igor911 написано:
Чому не додали українські субтитри?

Є ж українська озвучка,тому субтитри це несуттєво,як на мене!

ratbol 
Модератор HD


З нами з: 03.02.09
Востаннє: 01.12.16
Повідомлень: 1088

2013-10-26 22:49  
seroga13
Якщо є укр. саб, то їх варто додавати без вагань.

olyx 
Відео Гуртом - підтримка та поширення
Відео Гуртом - підтримка та поширення


З нами з: 25.01.10
Востаннє: 05.10.16
Повідомлень: 231

2013-10-26 23:08  
А чому 1080р не має золотого статусу, а 720р має??? Що за дискримінація?
igor911 
Відео Гуртом
Відео Гуртом


З нами з: 18.01.08
Востаннє: 04.12.16
Повідомлень: 5127

2013-10-26 23:19  
Я лажанув у свому релізі (720р) - там виявився розсихрон, тож на моє прохання модератор тимчасово до завтра (27.10) поставив золото, щоб компенсувати рейтинг людям, що перевантажують той реліз.
seroga13 
VIP


З нами з: 22.06.09
Востаннє: 03.12.16
Повідомлень: 257

2013-10-27 22:53  
ratbol написано:
Якщо є укр. саб, то їх варто додавати без вагань.

Буду мати на увазі!!!

ratbol 
Модератор HD


З нами з: 03.02.09
Востаннє: 01.12.16
Повідомлень: 1088

2013-10-31 09:55  
Чи планується оновлення з доріжкою з бд?
Заодно і субтитри б додали.

seroga13 
VIP


З нами з: 22.06.09
Востаннє: 03.12.16
Повідомлень: 257

2013-11-02 22:41  
ratbol написано:

Чи планується оновлення з доріжкою з бд?
Заодно і субтитри б додали.


так!

ratbol 
Модератор HD


З нами з: 03.02.09
Востаннє: 01.12.16
Повідомлень: 1088

2013-11-03 00:11  
Чудово. Чекаємо.
seroga13 
VIP


З нами з: 22.06.09
Востаннє: 03.12.16
Повідомлень: 257

2013-11-17 13:48  
Реліз оновленно - додано доріжка з бд та субтитри!
Ваш часовий пояс: GMT + 2 Години

Нова тема   Відповісти