Завантажити та скачати торренти українською


Людина зі сталі / Man of Steel (2013) 3D 1080p Ukr/Eng | Sub Ukr/Eng [Half OverUnder]

Нові коментарі

Нова тема   Відповісти
Автор Повідомлення
Andick 
Модератор відео та координатор поширення


З нами з: 03.11.09
Востаннє: 29.11.16
Повідомлень: 1499

2013-10-25 13:01  
Людина зі сталі / Man of Steel (2013) 3D 1080p Ukr/Eng | Sub Ukr/Eng [Half OverUnder]


Жанр: екшн, пригодницький, фентезі, фантастика
Країна: США, Канада, Великобританнія



Кінокомпанія: DC Entertainment, Legendary Pictures, Syncopy, Third Act Productions, Warner Bros. Pictures
Режисер: Зак Снайдер / Zack Snyder
Актори: Генрі Кевілл / Henry Cavill, Емі Адамс / Amy Adams, Майкл Шеннон / Michael Shannon, Рассел Кроу / Russell Crowe, Даян Лейн / Diane Lane, Кевін Костнер / Kevin Costner, Лоуренс Фішберн / Laurence Fishburne, Антьє Трає / Antje Traue, Крістофер Мелоні / Christopher Meloni, Гаррі Дж. Леннікс / Harry J. Lennix та інші

Сюжет:
Кларк Кент - молодий журналіст, який відчуває себе чужинцем через свою неймовірну силу. Відправлений багато років тому на Землю з куди більш розвиненої планети Криптон, він намагається усвідомити “Навіщо?”
Виховуваний у сім'ї названих батьків, Марти та Джонатана Кента, незабаром Кларк розуміє, що мати суперздібності — означає необхідність приймати дуже непрості рішення. Але саме в той момент, коли людству так необхідна стабільність, на світ здійснюється напад. Тепер Кларк стає героєм, відомим як Супермен, щоб допомогти відвести несподівану загрозу і захистити тих, кого він любить.


Тривалість: 02:23:03
Якість: 3D 1080p (Man of Steel 2013 1080p 3D BluRay Half-OU -HDMaNiAcS)
Відео:
кодек:
розмір кадру: 1920 x 1080
бітрейт: 16 Мб/с
тип 3D: Half OverUnder / Вертикальна стереопара

Аудіо # 1:
мова: українська
переклад: професійний дубльований
кодек: 5.1
бітрейт: 384 кб/с
Інформація про дубляж
Переклад: Олега Колеснікова
Режисер дубляжу: Анна Пащенко
Керівник проекту: Катерина Фуртас
Ролі дублювали: Генрі Кевіл — Дмитро Гаврилов, Кирило Нікітенко, Катерина Сергеєва?, Євген Пашин, Світлана Шекера, Лариса Руснак, Олег Лепенець, Олександр Ігнатуша, Михайло Жонін, Наталя Романько-Кисельова, Михайло Кришталь та інші.

Фільм перекладено і дубльовано на студії Postmodern на замовлення Кіноманія
Аудіо # 2:
мова: англійська
переклад: оригінал
кодек: 5.1
бітрейт: 1536 кб/с

Джерело озвучення:


Субтитри:
мова: українська
тип: програмні (м'які)
формат: *.srt

Субтитри:
мова: англійська
тип: пререндерні
формат: *.pgs
Скріншоти




MediaInfo
General
Unique ID : 188680219192013910340635678769675002163 (0x8DF27D0825519843A3377DE4B44C6133)
Complete name : G:\Man of Steel 2013 1080p 3D BluRay Half-OU -HDMaNiAcS\Man of Steel (2013) [Ukr,Eng] 3D 1080p [Hurtom].mkv
Format : Matroska
Format version : Version 4 / Version 2
File size : 17.9 GiB
Duration : 2h 23mn
Overall bit rate : 17.9 Mbps
Encoded date : UTC 2013-10-25 10:03:27
Writing application : mkvmerge v6.3.0 ('You can't stop me!') built on Jun 28 2013 20:09:41
Writing library : libebml v1.3.0 + libmatroska v1.4.0

Video
ID : 1
Format : AVC
Format/Info : Advanced Video Codec
Format profile : [email protected]
Format settings, CABAC : Yes
Format settings, ReFrames : 4 frames
Codec ID : V_MPEG4/ISO/AVC
Duration : 2h 23mn
Bit rate : 16.0 Mbps
Width : 1 920 pixels
Height : 1 080 pixels
Display aspect ratio : 16:9
Frame rate mode : Constant
Frame rate : 23.976 fps
Color space : YUV
Chroma subsampling : 4:2:0
Bit depth : 8 bits
Scan type : Progressive
Bits/(Pixel*Frame) : 0.322
Stream size : 15.7 GiB (87%)
Title : Man of Steel 2013 1080p 3D BluRay Half-OU -HDMaNiAcS
Writing library : core 133 r2334 a3ac64b
Encoding settings : cabac=1 / ref=4 / deblock=1:-3:-3 / analyse=0x3:0x113 / me=tesa / subme=11 / psy=1 / psy_rd=1.05:0.05 / mixed_ref=1 / me_range=24 / chroma_me=1 / trellis=2 / 8x8dct=1 / cqm=0 / deadzone=21,11 / fast_pskip=0 / chroma_qp_offset=-3 / threads=12 / lookahead_threads=2 / sliced_threads=0 / nr=0 / decimate=0 / interlaced=0 / bluray_compat=0 / constrained_intra=0 / bframes=9 / b_pyramid=2 / b_adapt=2 / b_bias=0 / direct=3 / weightb=1 / open_gop=0 / weightp=2 / keyint=250 / keyint_min=23 / scenecut=40 / intra_refresh=0 / rc_lookahead=40 / rc=2pass / mbtree=0 / bitrate=16000 / ratetol=1.0 / qcomp=0.60 / qpmin=10 / qpmax=69 / qpstep=4 / cplxblur=20.0 / qblur=0.5 / vbv_maxrate=40000 / vbv_bufsize=30000 / nal_hrd=none / frame-packing=4 / ip_ratio=1.20 / pb_ratio=1.10 / aq=1:0.60
Language : English
Default : Yes
Forced : No

Audio #1
ID : 2
Format : AC-3
Format/Info : Audio Coding 3
Mode extension : CM (complete main)
Format settings, Endianness : Big
Codec ID : A_AC3
Duration : 2h 23mn
Bit rate mode : Constant
Bit rate : 384 Kbps
Channel(s) : 6 channels
Channel positions : Front: L C R, Side: L R, LFE
Sampling rate : 48.0 KHz
Bit depth : 16 bits
Compression mode : Lossy
Stream size : 393 MiB (2%)
Title : Професійний дубльований - студія Postmodern
Language : Ukrainian
Default : Yes
Forced : No

Audio #2
ID : 3
Format :
Format/Info : Digital Theater Systems
Mode : 16
Format settings, Endianness : Big
Codec ID : A_DTS
Duration : 2h 23mn
Bit rate mode : Constant
Bit rate : 1 509 Kbps
Channel(s) : 6 channels
Channel positions : Front: L C R, Side: L R, LFE
Sampling rate : 48.0 KHz
Bit depth : 24 bits
Compression mode : Lossy
Stream size : 1.51 GiB (8%)
Title : Оригінал
Language : English
Default : No
Forced : No

Text #1
ID : 4
Format : UTF-8
Codec ID : S_TEXT/UTF8
Codec ID/Info : UTF-8 Plain Text
Language : Ukrainian
Default : No
Forced : No

Text #2
ID : 5
Format : PGS
Muxing mode : zlib
Codec ID : S_HDMV/PGS
Codec ID/Info : The same subtitle format used on BDs/HD-DVDs
Language : English
Default : No
Forced : No

Menu
00:00:00.000 : en:00:00:00.000
00:11:16.968 : en:00:11:16.968
00:20:01.450 : en:00:20:01.450
00:30:09.474 : en:00:30:09.474
00:39:21.609 : en:00:39:21.609
00:48:57.643 : en:00:48:57.643
00:59:03.415 : en:00:59:03.415
01:08:57.884 : en:01:08:57.884
01:17:35.109 : en:01:17:35.109
01:28:36.186 : en:01:28:36.186
01:40:47.792 : en:01:40:47.792
01:50:55.858 : en:01:50:55.858
02:00:53.580 : en:02:00:53.580
02:10:13.556 : en:02:10:13.556
02:12:49.920 : en:02:12:49.920






Відео виконане в форматі 3D! Для перегляду на компютері потрібні анагліфні окуляри та стереоплеєр!

Інструкції щодо перегляду відео у форматі 3D




Джерело:


 Трекер:    Зареєстрований   

Завантажити / скачати фільм українською



відео для новачків



 Зареєстрований:   2013-10-25 13:01
 Розмір:   17.9 GB 
 Оцінка фільму:   8.9/10 (Голосів: 10)
   
Інші релізи
   Людина зі сталі / Man of Steel (2013) 720p Ukr/Eng | Sub Ukr/Eng Drool  3 / 0   4.27 GB   2013-11-05 22:06 
   Людина зі сталі / Man of Steel (2013) 720p-mini Drool  2 / 0   2.98 GB   2013-11-04 12:07 
   Людина зі сталі / Man of Steel (2013) AVC Drool  1 / 0   2.19 GB   2013-11-01 07:56 
   Людина зі сталі / Man of Steel (2013) DVD9 2xEng/Cze/Rus/Ukr akon111  1 / 0   6.89 GB   2013-10-31 11:46 
   Людина зі сталі / Man of Steel (2013) Remux 1080p Ukr/Eng | Sub Ukr/Eng 11FrYkT  0 / 0   28.25 GB   2013-10-25 05:44 
   Людина зі сталі / Man of Steel (2013) Ukr/Eng | Sub Ukr/Eng karvai0  3 / 0   2.57 GB   2013-10-22 21:54 
   Людина зі сталі / Man of Steel (2013) patriot2305  11 / 0   1.65 GB   2013-10-22 18:02 
   Людина зі сталі / Man of Steel (2013) 720p Ukr/Eng | Sub Ukr/Eng igor911  6 / 0   8.92 GB   2013-10-22 08:38 
   Людина зі сталі / Man of Steel (2013) 1080p Ukr/Eng | Sub Multi igor911  3 / 0   16.13 GB   2013-10-22 07:29 
   Людина зі сталі / Man of Steel (2013) AVC Ukr/Eng | sub Ukr/Eng DеLight  2 / 0   2.57 GB   2013-10-21 23:07 
sergiysergiy 
Частий відвідувач


З нами з: 17.04.10
Востаннє: 11.11.16
Повідомлень: 30

2013-10-25 18:52  
Як його дивитися на комп'ютерi?
Andick 
Модератор відео та координатор поширення


З нами з: 03.11.09
Востаннє: 29.11.16
Повідомлень: 1499

2013-10-25 19:32  
sergiysergiy написано:
Як його дивитися на комп'ютерi?
купити телевізор з підтримкою 3D Happy
sergiysergiy 
Частий відвідувач


З нами з: 17.04.10
Востаннє: 11.11.16
Повідомлень: 30

2013-10-25 21:39  
На комп'ютерi!!! В мене нонiтор 24 дюйма, для чого менi телевiзор.
kino. 
Модератор відео


З нами з: 27.06.10
Востаннє: 03.12.16
Повідомлень: 2900

2013-10-25 22:22  
в описі є інструкція як дивитися
Ваш часовий пояс: GMT + 2 Години

Нова тема   Відповісти