Завантажити та скачати торренти українською


Очі змії / Snake Eyes (1998) Ukr/Eng | Sub Eng

Нові коментарі

Нова тема   Відповісти
Автор Повідомлення
Anonymous 







2013-10-25 05:33  
Очі змії / Snake Eyes (1998) Ukr/Eng | Sub Eng



Жанр: трилер, кримінальний, детектив
Країна: США, Канада



Кінокомпанія: DeBart, Paramount Pictures, Touchstone Pictures
Режисер: Брайан Де Пальма / Brian De Palma
Актори: Ніколас Кейдж / Nicolas Cage, Гарі Сініз / Gary Sinise, Джон Херд / John Heard, Карла Гуджіно / Carla Gugino, Стен Шоу / Stan Shaw, Кевін Данн / Kevin Dunn, Майкл Рісполі / Michael Rispoli, Джоел Фабіані / Joel Fabiani, Луїс Гузман / Luis Guzmán, Девід Ентоні Хіґґінс / David Anthony Higgins та інші

Сюжет:
Починаючи з перших сенсаційних пострілів і закінчуючи несподіваним фіналом, фільм повний загадок і тривожного очікування. Кейдж грає роль Ріка Санторо, ексцентричного детектива поліції Атлантік-Сіті, який приходить подивитися на свого спортивного кумира і заодно поліпшити свої фінансові справи на тоталізаторі.
Раптова стрілянина під час поєдинку перетворює 14 тисяч уболівальників на свідків політичного вбивства. Свідчення очевидців, відеозаписи електронної системи спостереження за казино та інформація, отримана від таємничої незнайомки в білому, - все це разом малює перед бувалим Санторо настільки неймовірну картину вбивства, що він просто відмовляється в неї вірити.



Рейтинг MPAA: R - особам до 17 років обов'язкова присутність батьків або дорослого опікуна
Вікова категорія: 16+


Тривалість: 01:38:17
Якість:
Відео:
кодек:
розмір кадру: 720x304
бітрейт: 1722 кб/с

Аудіо # 1:
мова: українська
переклад: багатоголосий закадровий
ролі озвучили: Олег Стальчук, Юрій Гребельник (Кевін Данн), Юрій Ребрик і один жіночий голос
кодек: 5.1
бітрейт: 384 кб/с

Аудіо # 2:
мова: англійська
переклад: оригінал
кодек: 5.1
бітрейт: 384 кб/с

Субтитри #1
мова: українська (форсовані, на непекладені місця)
тип: програмні (м'які)
формат: *.srt

Субтитри #2:
мова: англійська (SDH)
тип: програмні (м'які)
формат: *.srt
MediaInfo
Код:
General
Complete name                            : Snake Eyes (1998) [Ukr,Eng] [Hurtom & HQCLUB].avi
Format                                   : AVI
Format/Info                              : Audio Video Interleave
File size                                : 1.72 GiB
Duration                                 : 1h 38mn
Overall bit rate                         : 2 504 Kbps
Movie name                               : Очі змії / Snake Eyes / Глаза змеи (1998)
Director                                 : yaroslaigor (HQCLUB) & igor911 (HURTOM)
Genre                                    : трилер, кримінал, детектив
Writing application                      : VirtualDubModRus 1.5.10.2 (build 2540/release)
Writing library                          : VirtualDubMod build 2540/release
Copyright                                : HURTOM & HQCLUB
Comment                                  : 24.10.2013

Video
ID                                       : 0
Format                                   : MPEG-4 Visual
Format profile                           : Advanced [email protected]
Format settings, BVOP                    : 1
Format settings, QPel                    : No
Format settings, GMC                     : No warppoints
Format settings, Matrix                  : Custom
Codec ID                                 :
Codec ID/Hint                            :
Duration                                 : 1h 38mn
Bit rate                                 : 1 722 Kbps
Width                                    : 720 pixels
Height                                   : 304 pixels
Display aspect ratio                     : 2.35:1
Frame rate                               : 23.976 fps
Color space                              : YUV
Chroma subsampling                       : 4:2:0
Bit depth                                : 8 bits
Scan type                                : Progressive
Compression mode                         : Lossy
Bits/(Pixel*Frame)                       : 0.328
Stream size                              : 1.18 GiB (69%)
Writing library                          : 65

Audio #1
ID                                       : 1
Format                                   : AC-3
Format/Info                              : Audio Coding 3
Mode extension                           : CM (complete main)
Format settings, Endianness              : Big
Codec ID                                 : 2000
Duration                                 : 1h 38mn
Bit rate mode                            : Constant
Bit rate                                 : 384 Kbps
Channel count                            : 6 channels
Channel positions                        : Front: L C R, Side: L R, LFE
Sampling rate                            : 48.0 KHz
Bit depth                                : 16 bits
Compression mode                         : Lossy
Stream size                              : 270 MiB (15%)
Alignment                                : Split accross interleaves
Interleave, duration                     : 42 ms (1.00 video frame)
Interleave, preload duration             : 500 ms

Audio #2
ID                                       : 2
Format                                   : AC-3
Format/Info                              : Audio Coding 3
Mode extension                           : CM (complete main)
Format settings, Endianness              : Big
Codec ID                                 : 2000
Duration                                 : 1h 38mn
Bit rate mode                            : Constant
Bit rate                                 : 384 Kbps
Channel count                            : 6 channels
Channel positions                        : Front: L C R, Side: L R, LFE
Sampling rate                            : 48.0 KHz
Bit depth                                : 16 bits
Compression mode                         : Lossy
Stream size                              : 270 MiB (15%)
Alignment                                : Split accross interleaves
Interleave, duration                     : 42 ms (1.00 video frame)
Interleave, preload duration             : 500 ms




Джерела та подяки: &
ріп відео, оригінальні звук та субтитри - yaroslaigor (HQCLUB); першоджерело української доріжки - Lan - зведення, MAKAPOHHIK - запис з ТБ (всі - Гуртом).


ЗАЛИШАЙТЕСЬ ЯКОМОГА ДОВШЕ НА РОЗДАЧІ!

СКАЧАВ САМ - ДАЙ СКАЧАТИ ІНШИМ


Срібний реліз (на рейтинг впливає 50% завантаженого)
 Трекер:    Зареєстрований   

Завантажити / скачати фільм українською



відео для новачків



 Зареєстрований:   2013-10-25 05:33
 Розмір:   1.72 GB 
 Оцінка фільму:   5.1/10 (Голосів: 21)
   
Інші релізи
   Очі змії / Snake Eyes (1998) 720p Ukr/Eng | Sub Eng igor911  1 / 0   4.77 GB   2013-10-24 21:34 
Virake 
Localize Team
Localize Team


З нами з: 07.07.09
Востаннє: 07.12.16
Повідомлень: 4062

2013-10-25 07:21  
igor911 написано:
Показання свідків
свідчення
Anonymous 







2013-10-25 07:24  
виправив
seroga13 
VIP


З нами з: 22.06.09
Востаннє: 07.12.16
Повідомлень: 257

2013-10-25 18:13  
Фільм класний 7/10
olegderim 
VIP


З нами з: 08.02.11
Востаннє: 06.12.16
Повідомлень: 441

2013-10-29 12:16  
Чудовий детектив. Я спочатку здивувався - невже знову почали знімати нормальні трилери, але потім подивився на рік...
Ваш часовий пояс: GMT + 2 Години

Нова тема   Відповісти