Завантажити та скачати торренти українською


Очі змії / Snake Eyes (1998) 720p Ukr/Eng | Sub Eng

Нові коментарі

Нова тема   Відповісти
Автор Повідомлення
Anonymous 







2013-10-24 21:32  
Очі змії / Snake Eyes (1998) 720p Ukr/Eng | Sub Eng



Жанр: трилер, кримінальний, детектив
Країна: США, Канада



Кінокомпанія: DeBart, Paramount Pictures, Touchstone Pictures
Режисер: Брайан Де Пальма / Brian De Palma
Актори: Ніколас Кейдж / Nicolas Cage, Гарі Сініз / Gary Sinise, Джон Херд / John Heard, Карла Гуджіно / Carla Gugino, Стен Шоу / Stan Shaw, Кевін Данн / Kevin Dunn, Майкл Рісполі / Michael Rispoli, Джоел Фабіані / Joel Fabiani, Луїс Гузман / Luis Guzmán, Девід Ентоні Хіґґінс / David Anthony Higgins та інші

Сюжет:
Починаючи з перших сенсаційних пострілів і закінчуючи несподіваним фіналом, фільм повний загадок і тривожного очікування. Кейдж грає роль Ріка Санторо, ексцентричного детектива поліції Атлантік-Сіті, який приходить подивитися на свого спортивного кумира і заодно поліпшити свої фінансові справи на тоталізаторі.
Раптова стрілянина під час поєдинку перетворює 14 тисяч уболівальників на свідків політичного вбивства. Свідчення очевидців, відеозаписи електронної системи спостереження за казино та інформація, отримана від таємничої незнайомки в білому, - все це разом малює перед бувалим Санторо настільки неймовірну картину вбивства, що він просто відмовляється в неї вірити.



Рейтинг MPAA: R - особам до 17 років обов'язкова присутність батьків або дорослого опікуна
Вікова категорія: 16+


Тривалість: 01:38:17
Якість: 720p [DON]
Відео:
кодек:
розмір кадру: 1280x534
бітрейт: 5758 кб/с

Аудіо # 1:
мова: українська
переклад: багатоголосий закадровий
ролі озвучили: Олег Стальчук, Юрій Гребельник (Кевін Данн), Юрій Ребрик і один жіночий голос
кодек: 5.1
бітрейт: 384 кб/с

Аудіо # 2:
мова: англійська
переклад: оригінал
кодек: 5.1
бітрейт: 640 кб/с

Субтитри #1
мова: українська (форсовані, на непекладені місця)
тип: програмні (м'які)
формат: *.srt

Субтитри #2:
мова: англійська (повні)
тип: програмні (м'які)
формат: *.srt
MediaInfo та
[info]: profile High, level 4.1
[info]: frame I:846 Avg QP:16.83 size: 85361
[info]: frame P:28207 Avg QP:17.72 size: 53188
[info]: frame B:112345 Avg QP:19.60 size: 24811
[info]: consecutive B-frames: 1.1% 1.2% 3.9% 18.6% 21.4% 42.0% 7.7% 4.1%
encoded 141398 frames, 8.99 fps, 5914.28 kb/s


Код:
General
Unique ID                                : 211407850484775239999344574335334827793 (0x9F0BABC4DE33458EAC3500BCDDF54711)
Complete name                            : Snake Eyes (1998) [Ukr,Eng sub.Eng] 720p [Hurtom].mkv
Format                                   : Matroska
Format version                           : Version 4 / Version 2
File size                                : 4.77 GiB
Duration                                 : 1h 38mn
Overall bit rate                         : 6 941 Kbps
Movie name                               : Очі змії / Snake Eyes (1998) 720p [Hurtom]
Encoded date                             : UTC 2013-10-24 08:48:16
Writing application                      : mkvmerge v6.5.0 ('Isn't she lovely') built on Oct 20 2013 12:50:05
Writing library                          : libebml v1.3.0 + libmatroska v1.4.1

Video
ID                                       : 1
Format                                   : AVC
Format/Info                              : Advanced Video Codec
Format profile                           : [email protected]
Format settings, CABAC                   : Yes
Format settings, ReFrames                : 11 frames
Codec ID                                 : V_MPEG4/ISO/AVC
Duration                                 : 1h 38mn
Bit rate                                 : 5 778 Kbps
Width                                    : 1 280 pixels
Height                                   : 534 pixels
Display aspect ratio                     : 2.40:1
Frame rate mode                          : Constant
Frame rate                               : 23.976 fps
Color space                              : YUV
Chroma subsampling                       : 4:2:0
Bit depth                                : 8 bits
Scan type                                : Progressive
Bits/(Pixel*Frame)                       : 0.353
Stream size                              : 3.97 GiB (83%)
Title                                    : Очі змії / Snake Eyes / Глаза змеи (1998) 720p [DON]
Writing library                          : core 116 r2057 0ba8a9c
Encoding settings                        : cabac=1 / ref=11 / deblock=1:-3:-3 / analyse=0x3:0x133 / me=umh / subme=10 / psy=1 / psy_rd=1.00:0.00 / mixed_ref=1 / me_range=32 / chroma_me=1 / trellis=2 / 8x8dct=1 / cqm=0 / deadzone=21,11 / fast_pskip=0 / chroma_qp_offset=-2 / threads=18 / sliced_threads=0 / nr=0 / decimate=0 / interlaced=0 / bluray_compat=0 / constrained_intra=0 / bframes=7 / b_pyramid=2 / b_adapt=2 / b_bias=0 / direct=3 / weightb=1 / open_gop=0 / weightp=2 / keyint=250 / keyint_min=23 / scenecut=40 / intra_refresh=0 / rc_lookahead=40 / rc=crf / mbtree=0 / crf=17.0 / qcomp=0.65 / qpmin=0 / qpmax=40 / qpstep=4 / vbv_maxrate=50000 / vbv_bufsize=50000 / crf_max=0.0 / nal_hrd=none / ip_ratio=1.25 / pb_ratio=1.25 / aq=1:0.60
Language                                 : English
Default                                  : Yes
Forced                                   : No

Audio #1
ID                                       : 2
Format                                   : AC-3
Format/Info                              : Audio Coding 3
Mode extension                           : CM (complete main)
Format settings, Endianness              : Big
Codec ID                                 : A_AC3
Duration                                 : 1h 38mn
Bit rate mode                            : Constant
Bit rate                                 : 384 Kbps
Channel count                            : 6 channels
Channel positions                        : Front: L C R, Side: L R, LFE
Sampling rate                            : 48.0 KHz
Bit depth                                : 16 bits
Compression mode                         : Lossy
Stream size                              : 270 MiB (6%)
Title                                    : MVO [Novyj] 5.1 384 kbps [Hurtom-Lan]
Language                                 : Ukrainian
Default                                  : Yes
Forced                                   : No

Audio #2
ID                                       : 3
Format                                   : AC-3
Format/Info                              : Audio Coding 3
Mode extension                           : CM (complete main)
Format settings, Endianness              : Big
Codec ID                                 : A_AC3
Duration                                 : 1h 38mn
Bit rate mode                            : Constant
Bit rate                                 : 640 Kbps
Channel count                            : 6 channels
Channel positions                        : Front: L C R, Side: L R, LFE
Sampling rate                            : 48.0 KHz
Bit depth                                : 16 bits
Compression mode                         : Lossy
Stream size                              : 450 MiB (9%)
Title                                    : Original 5.1 640 kbps
Language                                 : English
Default                                  : No
Forced                                   : No

Text #1
ID                                       : 4
Format                                   : UTF-8
Codec ID                                 : S_TEXT/UTF8
Codec ID/Info                            : UTF-8 Plain Text
Title                                    : Ukr forced
Language                                 : Ukrainian
Default                                  : Yes
Forced                                   : Yes

Text #2
ID                                       : 5
Format                                   : UTF-8
Codec ID                                 : S_TEXT/UTF8
Codec ID/Info                            : UTF-8 Plain Text
Title                                    : Eng full
Language                                 : English
Default                                  : No
Forced                                   : No
Порівняння скріншотів

Blu-Ray vs DON 5786 kbps (цей ріп) vs 3279 kbps vs 5289 kbps









Джерела та подяки: &
ріп відео, оригінальні звук та субтитри - Neon_project (рутрекер); першоджерело української доріжки - Lan - зведення, MAKAPOHHIK - запис з ТБ (всі - Гуртом).


ЗАЛИШАЙТЕСЬ ЯКОМОГА ДОВШЕ НА РОЗДАЧІ!

СКАЧАВ САМ - ДАЙ СКАЧАТИ ІНШИМ


Срібний реліз (на рейтинг впливає 50% завантаженого)
 Трекер:    Зареєстрований   

Завантажити / скачати фільм українською



відео для новачків



 Зареєстрований:   2013-10-24 21:34
 Розмір:   4.77 GB 
 Оцінка фільму:   4/10 (Голосів: 15)
   
Інші релізи
   Очі змії / Snake Eyes (1998) Ukr/Eng | Sub Eng igor911  2 / 0   1.72 GB   2013-10-25 05:33 
Anonymous 







2013-10-24 22:22  
сирник 
Частий відвідувач


З нами з: 13.10.10
Востаннє: 17.01.14
Повідомлень: 44

2013-10-24 23:10  
Колись бачив, добрий детектив. Чи стану переглядати, ще не вирішив, але тим, хто не бачив, рекомендувати можу
Ваш часовий пояс: GMT + 2 Години

Нова тема   Відповісти