Завантажити та скачати торренти українською


Самотній рейнджер / The Lone Ranger (2013) 720p-mini

Нові коментарі

Нова тема   Відповісти
Автор Повідомлення
Drool 
VIP


З нами з: 17.04.10
Востаннє: 05.12.16
Повідомлень: 1262

2013-10-23 09:57  
Самотній рейнджер / The Lone Ranger (2013) 720p-mini

Жанр: вестерн, пригоди, екшн
Країна: США



Кінокомпанія: Walt Disney Pictures, Jerry Bruckheimer Films, Blind Wink Productions, Classic Media, Infinitum Nihil, Silver Bullet Productions; мейджор – Buena Vista Sony Pictures Releasing (BVSPR)
Режисер: Гор Вербінскі
Актори: Джонні Депп, Армі Хаммер, Том Вілкінсон, Вільям Фітчнер, Баррі Пеппер, Джеймс Бедж Дейл, Хелена Бонем Картер, Рут Вілсон, Мейсон Ілстон

Сюжет:
Розповідь піде про події далекого часу в Техасі. Загін техаських рейнджерів гнався за бандою злочинців, очолював яку лютий лідер Бутч Кавендіш. Їм вдалося перехитрити охоронців закону, влаштувавши вмілу засідку...


Тривалість: 02:29:33
Якість: 720p-mini
Відео:
кодек:
розмір кадру: 1280x536
бітрейт: 2306 кб/с

Аудіо:
мова: українська
переклад: професійний дубльований
кодек: 5.1
бітрейт: 384 кб/с
Джерело озвучення:


Субтитри:
мова: українська (форсовані)
тип: програмні (м'які)
формат: *.srt
MediaInfo
General
Unique ID : 77367781768104738023294962027414128887 (0x3A347E25C4B9D7FF4DDD6F032D7B88F7)
Complete name : /mnt/disk/Video/The.Lone.Ranger.2013.Ukr.Dub..720p-mini.mkv
Format : Matroska
File size : 2.81 GiB
Duration : 2h 29mn
Overall bit rate : 2 692 Kbps
Movie name : Самотній рейнджер / The Lone Ranger (2013) 720p-mini | video by NESMEURED
Encoded date : UTC 2013-10-23 12:19:25
Writing application : mkvmerge v4.8.0 ('I Got The...') сборка от Aug 22 2011 13:16:28
Writing library : libebml v1.2.0 + libmatroska v1.1.0

Video
ID : 1
Format : AVC
Format/Info : Advanced Video Codec
Format profile : [email protected]
Format settings, CABAC : Yes
Format settings, ReFrames : 4 frames
Format settings, GOP : M=4, N=49
Codec ID : V_MPEG4/ISO/AVC
Duration : 2h 29mn
Bit rate : 2 306 Kbps
Width : 1 280 pixels
Height : 536 pixels
Display aspect ratio : 2.35:1
Frame rate : 23.976 fps
Color space : YUV
Chroma subsampling : 4:2:0
Bit depth : 8 bits
Scan type : Progressive
Bits/(Pixel*Frame) : 0.140
Stream size : 2.35 GiB (84%)
Title : Самотній рейнджер / The Lone Ranger (2013) 720p-mini | video by NESMEURED
Writing library : core 133 r2334 a3ac64b
Encoding settings : cabac=1 / ref=5 / deblock=1:-2:-2 / analyse=0x3:0x133 / me=umh / subme=9 / psy=1 / psy_rd=1.00:0.25 / mixed_ref=1 / me_range=16 / chroma_me=1 / trellis=2 / 8x8dct=1 / cqm=0 / deadzone=21,11 / fast_pskip=1 / chroma_qp_offset=-4 / threads=12 / lookahead_threads=2 / sliced_threads=0 / nr=1 / decimate=1 / interlaced=0 / bluray_compat=0 / constrained_intra=0 / bframes=3 / b_pyramid=1 / b_adapt=1 / b_bias=0 / direct=3 / weightb=1 / open_gop=0 / weightp=2 / keyint=250 / keyint_min=23 / scenecut=40 / intra_refresh=0 / rc_lookahead=40 / rc=2pass / mbtree=1 / bitrate=2306 / ratetol=1.0 / qcomp=0.60 / qpmin=0 / qpmax=69 / qpstep=4 / cplxblur=20.0 / qblur=0.5 / vbv_maxrate=48000 / vbv_bufsize=40000 / nal_hrd=none / ip_ratio=1.40 / aq=1:1.10

Audio
ID : 2
Format : AC-3
Format/Info : Audio Coding 3
Mode extension : CM (complete main)
Codec ID : A_AC3
Duration : 2h 29mn
Bit rate mode : Constant
Bit rate : 384 Kbps
Channel(s) : 6 channels
Channel positions : Front: L C R, Side: L R, LFE
Sampling rate : 48.0 KHz
Bit depth : 16 bits
Compression mode : Lossy
Stream size : 411 MiB (14%)
Title : Рідна мова (дубляж) 384 kbps from DVD5
Language : Ukrainian

Text
ID : 3
Format : UTF-8
Codec ID : S_TEXT/UTF8
Codec ID/Info : UTF-8 Plain Text
Title : Українські (форсовані)
Language : Ukrainian
Скріншоти








Походження: відеоряд взято з іноземонго ріпу від NESMEURED
Особиста оцінка: 10 - без зайвих вагань рекомендую всім!


 Трекер:    Зареєстрований   

Завантажити / скачати фільм українською



відео для новачків



 Зареєстрований:   2013-10-23 16:42
 Розмір:   2.81 GB 
 Оцінка фільму:   9.6/10 (Голосів: 52)
   
Інші релізи
bot 
робот


З нами з: 30.09.07
Востаннє: 26.05.05
Повідомлень: 15989

2013-10-23 09:57  
Тему перенесено з Фільми в HD до форуму Анонси релізів


Drool

Drool 
VIP


З нами з: 17.04.10
Востаннє: 05.12.16
Повідомлень: 1262

2013-10-23 09:57  
Скоріш за все - завтра. Орієнтовний розмір - ~2,9 Гб.
bot 
робот


З нами з: 30.09.07
Востаннє: 26.05.05
Повідомлень: 15989

2013-10-23 16:42  
Тему перенесено з Анонси релізів до форуму Фільми в HD


Drool

TARAS_09 
Новенький


З нами з: 04.06.13
Востаннє: 22.10.16
Повідомлень: 6

2013-10-23 18:02  
Залийте будь ласка на екс юа для онлайн перегляду. З планшета погано читає з ФС.
Drool 
VIP


З нами з: 17.04.10
Востаннє: 05.12.16
Повідомлень: 1262

2013-10-23 23:10  
TARAS_09 написано:
Залийте будь ласка на екс юа для онлайн перегляду.

Цей фільм внесено в перелік заборонених для публікації на ексі.

Rysalka7777 
Свій


З нами з: 30.12.09
Востаннє: 04.12.16
Повідомлень: 129

2013-10-24 07:25  
Drool написано:
Цей фільм внесено в перелік заборонених для публікації на ексі.

О, це цікаво, в де можна проглянути список фільмів, заборонених для ексу?

Drool 
VIP


З нами з: 17.04.10
Востаннє: 05.12.16
Повідомлень: 1262

2013-10-24 09:18  
Rysalka7777 написано:
О, це цікаво, в де можна проглянути список фільмів, заборонених для ексу?

url/72232526

Nikson 
VIP


З нами з: 12.01.10
Востаннє: 05.12.16
Повідомлень: 654

2013-10-24 20:28  
Оцінка 7 з 10... Сподобалось набагато більше за нового супермена
ssTAss 
Модератор музики


З нами з: 05.07.08
Востаннє: 05.12.16
Повідомлень: 10939

2013-10-25 21:01  
з правил
6c6c6 написано:

3. Обкладинка

Вказується обкладинка з файлу, що розміщений на вашому комп'ютері. Бажано обирати українську обкладинку, або ж у разі її відсутності оригінальну (мовою оригіналу). Об'єм допускається до 400 КБ, але рекомендується до 200 КБ. У роздільній здатності обкладинки обмежень немає.

Drool 
VIP


З нами з: 17.04.10
Востаннє: 05.12.16
Повідомлень: 1262

2013-10-26 00:33  
ssTAss, а давай позаливаємо на хостинг картинок по 10 одних і тих же файлів? Що, так хочеться збільшувати ентропію? Я теж просто взяв URL картинки з іншої роздачі, не звернувши уваги на адресу. Пропоную внести в правила зміни щодо цього, як, наприклад, на файрбіті - картинки тільки на конкретному хостингу картинок. Але заливати по стотищьпятьсот копій однієї і тієї ж обкладинки - дурість.
Seriy100293 
VIP


З нами з: 17.08.11
Востаннє: 04.09.16
Повідомлень: 307

2013-10-27 15:22  
Досить гарний фільм, сподобався. Цікавий сюжет
waloha 
VIP


З нами з: 29.12.09
Востаннє: 05.12.16
Повідомлень: 323

2013-11-08 20:57  
Як завжди Деп на висоті, викопаний пірат Happy
Drool 
VIP


З нами з: 17.04.10
Востаннє: 05.12.16
Повідомлень: 1262

2013-11-10 01:14  
waloha написано:
викопаний пірат

Який??!!!

waloha 
VIP


З нами з: 29.12.09
Востаннє: 05.12.16
Повідомлень: 323

2013-11-10 19:39  
Цитата:
Який??!!!

викопаний Джек Горобець

Drool 
VIP


З нами з: 17.04.10
Востаннє: 05.12.16
Повідомлень: 1262

2013-11-12 16:36  
waloha написано:
викопаний Джек Горобець

Звідки викопаний?!!

Leopolese 
Новенький


З нами з: 20.07.12
Востаннє: 22.06.15
Повідомлень: 5

2014-01-01 20:27  
В мене чомусь сабів не показує (
Drool 
VIP


З нами з: 17.04.10
Востаннє: 05.12.16
Повідомлень: 1262

2014-01-02 12:51  
Leopolese написано:
В мене чомусь сабів не показує (

а) був скачаний не цей реліз
б) саби вимкнуто у програвачі
в) телевізор не підтримує саби
г) свій варіант.

Leopolese 
Новенький


З нами з: 20.07.12
Востаннє: 22.06.15
Повідомлень: 5

2014-01-04 17:18  
Жоден з варіантів не спрацював ))) Скачав потім сторонні саби) А фільмець непоганий, задоволення отримав)))
MamaSide 
Новенький


З нами з: 16.03.15
Востаннє: 11.10.16
Повідомлень: 1

2016-05-13 10:29  
Дякую за можливість скачати фільм. Якість відмінна!!
Ваш часовий пояс: GMT + 2 Години

Нова тема   Відповісти