Завантажити та скачати торренти українською


Самотній рейнджер / The Lone Ranger (2013) 720p Ukr/Eng | Sub Eng

Нові коментарі

Нова тема   Відповісти
Автор Повідомлення
Anonymous 







2013-10-22 19:29  
Самотній рейнджер / The Lone Ranger (2013) 720p Ukr/Eng | Sub Eng



Альтернативні постери







Жанр: вестерн, пригодницький, бойовик, комедія
Країна: США



Кінокомпанія: Walt Disney Pictures, Jerry Bruckheimer Films, Blind Wink Productions
Режисер: Гор Вербінські / Gore Verbinski
Актори: Джонні Депп / Johnny Depp, Армі Хаммер / Armie Hammer, Том Вілкінсон / Tom Wilkinson, Вільям Фіхтнер / William Fichtner, Беррі Пеппер / Barry Pepper, Джеймс Бедж Дейл / James Badge Dale, Хелена Бонем Картер / Helena Bonham Carter та інші.

Сюжет:
Історія захисника закону Джона Ріда, який за допомогою індіанця Тонто став легендарним месником у масці, що стоїть на захисті справедливості. Тонто з гумором та байками оповідає про ті пригоди, які довелося пережити двом несхожим один на одного героям, зведеним долею для того, щоб разом боротися проти спільного ворога. Їм доводиться протистояти жадібності та корупції в часи, коли поява перших залізниць змінила уявлення про владу і могутність у світі...



Рейтинг MPAA: PG-13 - дітям до 13 років перегляд не бажаний
Вікова категорія: 12+


Тривалість: 02:29:33
Якість: 720p
Відео:
кодек:
розмір кадру: 1280x534
бітрейт: 5958 кбіт/с (crf=15.9)

Аудіо # 1:
мова: українська - LeDoyen Studio
переклад: професійний дубльований
кодек: 5.1
бітрейт: 1152 кбіт/с
Переклад: Сергій Ковальчук

Аудіо # 2:
мова: англійська
переклад: оригінал
кодек: 5.1
бітрейт: 1509 кбіт/с

Субтитри # 1:
мова: англійська (форсовані)
тип: програмні (м'які)
формат: *.srt

Субтитри # 2:
мова: англійська (повні)
тип: програмні (м'які)
формат: *.srt

Збережено оригінальні розділи, як на Blu-ray.
MediaInfo
Код:
General
Unique ID                                : 209282607475192360844049486597339456097 (0x9D725D32E0D87735BD196D16363FA261)
Complete name                            : The Lone Ranger (2013) [Ukr,Eng sub.Eng] 720p [Hurtom & HQ-ViDEO].mkv
Format                                   : Matroska
Format version                           : Version 4 / Version 2
File size                                : 9.21 GiB
Duration                                 : 2h 29mn
Overall bit rate                         : 8 794 Kbps
Movie name                               : Самотній рейнджер / The Lone Ranger (2013) 720p [Hurtom & HQ-ViDEO]
Encoded date                             : UTC 2014-10-16 17:12:52
Writing application                      : mkvmerge v7.2.0 ('On Every Street') 64bit built on Sep 13 2014 15:52:10
Writing library                          : libebml v1.3.0 + libmatroska v1.4.1
DURATION                                 : 02:29:33.003000000
NUMBER_OF_FRAMES                         : 841219
NUMBER_OF_BYTES                          : 1692532628
_STATISTICS_WRITING_APP                  : mkvmerge v7.2.0 ('On Every Street') 64bit built on Sep 13 2014 15:52:10
_STATISTICS_WRITING_DATE_UTC             : 2014-10-16 17:12:52
_STATISTICS_TAGS                         : BPS DURATION NUMBER_OF_FRAMES NUMBER_OF_BYTES

Video
ID                                       : 1
Format                                   : AVC
Format/Info                              : Advanced Video Codec
Format profile                           : [email protected]
Format settings, CABAC                   : Yes
Format settings, ReFrames                : 11 frames
Codec ID                                 : V_MPEG4/ISO/AVC
Duration                                 : 2h 29mn
Bit rate                                 : 5 958 Kbps
Width                                    : 1 280 pixels
Height                                   : 534 pixels
Display aspect ratio                     : 2.40:1
Frame rate mode                          : Constant
Frame rate                               : 23.976 fps
Color space                              : YUV
Chroma subsampling                       : 4:2:0
Bit depth                                : 8 bits
Scan type                                : Progressive
Bits/(Pixel*Frame)                       : 0.364
Stream size                              : 6.24 GiB (68%)
Title                                    : Самотній рейнджер / The Lone Ranger / Одинокий рейнджер (2013) 720p [HQ-ViDEO-Vaippp]
Writing library                          : core 138 r2358 9e941d1
Encoding settings                        : cabac=1 / ref=11 / deblock=1:-3:-3 / analyse=0x3:0x133 / me=esa / subme=11 / psy=1 / psy_rd=1.05:0.00 / mixed_ref=1 / me_range=24 / chroma_me=1 / trellis=2 / 8x8dct=1 / cqm=0 / deadzone=21,11 / fast_pskip=1 / chroma_qp_offset=-2 / threads=12 / lookahead_threads=2 / sliced_threads=0 / nr=0 / decimate=1 / interlaced=0 / bluray_compat=0 / constrained_intra=0 / bframes=7 / b_pyramid=2 / b_adapt=2 / b_bias=0 / direct=1 / weightb=1 / open_gop=0 / weightp=2 / keyint=240 / keyint_min=22 / scenecut=40 / intra_refresh=0 / rc_lookahead=60 / rc=crf / mbtree=0 / crf=15.9 / qcomp=0.80 / qpmin=0 / qpmax=69 / qpstep=4 / vbv_maxrate=62500 / vbv_bufsize=78125 / crf_max=0.0 / nal_hrd=none / ip_ratio=1.40 / pb_ratio=1.30 / aq=1:0.88
Language                                 : English
Default                                  : Yes
Forced                                   : No
Color primaries                          : BT.709
Transfer characteristics                 : BT.709
Matrix coefficients                      : BT.709
DURATION                                 : 02:29:32.964000000
NUMBER_OF_FRAMES                         : 215136
NUMBER_OF_BYTES                          : 6897337847
_STATISTICS_WRITING_APP                  : mkvmerge v7.2.0 ('On Every Street') 64bit built on Sep 13 2014 15:52:10
_STATISTICS_WRITING_DATE_UTC             : 2014-10-16 17:12:52
_STATISTICS_TAGS                         : BPS DURATION NUMBER_OF_FRAMES NUMBER_OF_BYTES

Audio #1
ID                                       : 2
Format                                   :
Format/Info                              : Digital Theater Systems
Mode                                     : 16
Format settings, Endianness              : Big
Codec ID                                 : A_DTS
Duration                                 : 2h 29mn
Bit rate mode                            : Constant
Bit rate                                 : 1 152 Kbps
Channel(s)                               : 6 channels
Channel positions                        : Front: L C R, Side: L R, LFE
Sampling rate                            : 48.0 KHz
Bit depth                                : 24 bits
Compression mode                         : Lossy
Stream size                              : 1.21 GiB (13%)
Title                                    : Dub [LeDoyen Studio] 5.1 1152 kbps [Hurtom]
Language                                 : Ukrainian
Default                                  : Yes
Forced                                   : No

Audio #2
ID                                       : 3
Format                                   :
Format/Info                              : Digital Theater Systems
Mode                                     : 16
Format settings, Endianness              : Big
Codec ID                                 : A_DTS
Duration                                 : 2h 29mn
Bit rate mode                            : Constant
Bit rate                                 : 1 509 Kbps
Channel(s)                               : 6 channels
Channel positions                        : Front: L C R, Side: L R, LFE
Sampling rate                            : 48.0 KHz
Bit depth                                : 24 bits
Compression mode                         : Lossy
Stream size                              : 1.58 GiB (17%)
Title                                    : Original 5.1 1509 Kbps [Blu-Ray EUR]
Language                                 : English
Default                                  : No
Forced                                   : No

Text #1
ID                                       : 4
Format                                   : UTF-8
Codec ID                                 : S_TEXT/UTF8
Codec ID/Info                            : UTF-8 Plain Text
Title                                    : Eng forced
Language                                 : English
Default                                  : No
Forced                                   : No

Text #2
ID                                       : 5
Format                                   : UTF-8
Codec ID                                 : S_TEXT/UTF8
Codec ID/Info                            : UTF-8 Plain Text
Title                                    : Eng full
Language                                 : English
Default                                  : No
Forced                                   : No

Menu
00:00:00.000                             : en:Chapter 01
00:08:16.120                             : en:Chapter 02
00:13:38.776                             : en:Chapter 03
00:24:51.406                             : en:Chapter 04
00:29:03.032                             : en:Chapter 05
00:32:05.840                             : en:Chapter 06
00:40:32.012                             : en:Chapter 07
00:45:29.643                             : en:Chapter 08
00:53:29.664                             : en:Chapter 09
01:01:05.662                             : en:Chapter 10
01:10:01.614                             : en:Chapter 11
01:16:12.317                             : en:Chapter 12
01:24:45.455                             : en:Chapter 13
01:28:39.731                             : en:Chapter 14
01:35:35.187                             : en:Chapter 15
01:41:13.984                             : en:Chapter 16
01:46:35.806                             : en:Chapter 17
01:50:02.178                             : en:Chapter 18
01:53:55.203                             : en:Chapter 19
01:56:15.259                             : en:Chapter 20
02:01:51.095                             : en:Chapter 21
02:12:07.210                             : en:Chapter 22
02:17:13.934                             : en:Chapter 23
02:20:20.286                             : en:Chapter 24




Джерела та подяки: &
За надану українську доріжку окрема подяка 11FrYkT (Гуртом)

Особиста оцінка: 7 - один раз можна глянути


ЗАЛИШАЙТЕСЬ ЯКОМОГА ДОВШЕ НА РОЗДАЧІ!

СКАЧАВ САМ - ДАЙ СКАЧАТИ ІНШИМ


 Трекер:    Зареєстрований   

Завантажити / скачати фільм українською



відео для новачків



 Зареєстрований:   2014-10-16 19:41
 Розмір:   9.21 GB 
 Оцінка фільму:   7.2/10 (Голосів: 47)
   
Інші релізи
   Самотній рейнджер / The Lone Ranger (2013) AVC patriot2305  3 / 0   2.44 GB   2014-10-24 09:58 
   Самотній рейнджер / The Lone Ranger (2013) 1080p Ukr/Eng | Sub Eng 11FrYkT  1 / 1   14.8 GB   2014-10-16 15:21 
   Самотній рейнджер / The Lone Ranger (2013) AngryBirdsUA  18 / 0   2.18 GB   2013-10-27 20:03 
   Самотній рейнджер / The Lone Ranger (2013) 720p-mini Drool  7 / 0   2.81 GB   2013-10-23 16:42 
IRONHIDE 
Свій


З нами з: 06.08.10
Востаннє: 07.12.16
Повідомлень: 120

2013-10-22 20:15  
дякую)
мамбо 
Поважний учасник


З нами з: 23.12.11
Востаннє: 07.12.16
Повідомлень: 208

2013-10-22 20:23  
Говорили, що Джонні Депп весь фільм тягне.
Varenick 
Новенький


З нами з: 11.01.10
Востаннє: 30.11.16
Повідомлень: 8

2013-10-22 21:29  
мамбоправду говорили, десь так до половини фільму тягне, а далі ще гірше...
Nemess 
Новенький


З нами з: 30.09.13
Востаннє: 03.12.16
Повідомлень: 4

2013-10-28 13:31  
ДЯКУЮ АВТОРУ
waldi-hurtom 
VIP


З нами з: 07.10.12
Востаннє: 07.12.16
Повідомлень: 611

2013-10-28 19:19  
До 7 років. Єдина прикольна сцена - голодні кролі атакують печеню! 1 з 10.
trelxtrel 
VIP


З нами з: 15.12.10
Востаннє: 07.12.16
Повідомлень: 327

2014-03-17 11:47  
Фільм надто затянутий з купою непотрібних сцен, які просто псують загальну картинку і заставляють нудьгувати! Дивитись можна, але могло бути краще! До рівня пригод у Піратах Карибського моря не дотягує!

6,5/10

Anonymous 







2014-10-16 19:44  
Замінив обидві звукові доріжки з на .
Maters 
VIP


З нами з: 27.03.12
Востаннє: 07.12.16
Повідомлень: 1161

2015-10-11 08:48  
6/10 - не більше. шкода, що за порадами друзів відкладав цей фільм для слушного часу ..
Olkos 
VIP


З нами з: 07.03.09
Востаннє: 07.12.16
Повідомлень: 534

2015-10-25 21:04  
Фільм не дуже, весь час дратував головний герой(Рейнджер) та й Депп дуже нагадує свого персонажа Піратів Карибського Моря.
Ваш часовий пояс: GMT + 2 Години

Нова тема   Відповісти