Завантажити та скачати торренти українською


Дон Жуан де Марко / Don Juan DeMarco (1994) 720 Ukr/Eng | Sub Eng

Нові коментарі

Нова тема   Відповісти
Автор Повідомлення
Anonymous 







2013-10-22 10:26  
Дон Жуан де Марко / Don Juan DeMarco (1994) 720 Ukr/Eng | Sub Eng



Жанр: драма, мелодрама, комедія
Країна: США



Кінокомпанія: New Line Cinema, American Zoetrope, Outlaw Productions
Режисер: Джеремі Левен / Jeremy Leven
Актори: Марлон Брандо / Marlon Brando, Джонні Депп / Johnny Depp, Фей Данавей / Faye Dunaway, Жеральдін Пайя / Géraldine Pailhas, Боб Діші / Bob Dishy, Рейчел Тікотін / Rachel Ticotin, Таліса Сото / Talisa Soto, Маріта Гераті / Marita Geraghty, Річард С. Сараф'ян / Richard C. Sarafian, Тереза Х'юз / Tresa Hughes та інші

Сюжет:
Романтична мелодрама про взаємини лікаря-психіатра, який виходить на пенсію і його молодого пацієнта, який щиро вважає себе Дон Жуаном. Дружба, що виникла між героями фільму допомагає повернути лікарю втрачену молодість духу, свіжість почуттів і здатність мріяти.
Божевілля його підопічного виявиться ні чим іншим, як винятковим відношенням до жінок, дивовижною здатністю молодої людини надати кожній своїй обраниці незрівнянне ні з чим задоволення кохання...



Рейтинг MPAA: PG-13 - дітям до 13 років перегляд не бажаний
Вікова категорія: 12+


Тривалість: 01:37:11
Якість: 720p (ріп від DON)
Відео:
кодек:
розмір кадру: 1280 х 720
бітрейт: 8126 кб/с (crf=17)

Аудіо # 1: Так Треба Продакшн на замовлення
мова: українська
переклад: багатоголосий закадровий
ролі озвучили: Дмитро Гаврилов, Юрій Гребельник, Олег Стальчук та один жіночий голос
кодек: 5.1
бітрейт: 448 кб/с

Аудіо # 2:
мова: англійська
переклад: оригінал
кодек: 5.1
бітрейт: 640 кб/с

Субтитри:
мова: англійська
тип: програмні (м'які)
формат: *.srt

Збережено оригінальні розділи, як на Blu-ray.
MediaInfo
Код:
General
Unique ID                                : 202953300223015978091523246619608742053 (0x98AF62421AB4E28D9CD9B227C27FF8A5)
Complete name                            : Don Juan DeMarco (1994) [Ukr,Eng sub.Eng] 720p [Hurtom].mkv
Format                                   : Matroska
Format version                           : Version 4 / Version 2
File size                                : 6.38 GiB
Duration                                 : 1h 37mn
Overall bit rate                         : 9 401 Kbps
Movie name                               : Дон Жуан де Марко / Don Juan DeMarco (1994) 720p [Hurtom]
Encoded date                             : UTC 2013-10-21 15:34:53
Writing application                      : mkvmerge v6.5.0 ('Isn't she lovely') built on Oct 20 2013 12:50:05
Writing library                          : libebml v1.3.0 + libmatroska v1.4.1

Video
ID                                       : 1
Format                                   : AVC
Format/Info                              : Advanced Video Codec
Format profile                           : [email protected]
Format settings, CABAC                   : Yes
Format settings, ReFrames                : 4 frames
Codec ID                                 : V_MPEG4/ISO/AVC
Duration                                 : 1h 37mn
Bit rate                                 : 8 126 Kbps
Width                                    : 1 280 pixels
Height                                   : 720 pixels
Display aspect ratio                     : 16:9
Frame rate mode                          : Constant
Frame rate                               : 23.976 fps
Color space                              : YUV
Chroma subsampling                       : 4:2:0
Bit depth                                : 8 bits
Scan type                                : Progressive
Bits/(Pixel*Frame)                       : 0.368
Stream size                              : 5.52 GiB (86%)
Title                                    : Дон Жуан де Марко / Don Juan DeMarco (1994) 720p [DON]
Writing library                          : core 116 r2057 0ba8a9c
Encoding settings                        : cabac=1 / ref=3 / deblock=1:-3:-3 / analyse=0x3:0x133 / me=umh / subme=10 / psy=1 / psy_rd=1.00:0.00 / mixed_ref=1 / me_range=32 / chroma_me=1 / trellis=2 / 8x8dct=1 / cqm=0 / deadzone=21,11 / fast_pskip=0 / chroma_qp_offset=-2 / threads=18 / sliced_threads=0 / nr=0 / decimate=0 / interlaced=0 / bluray_compat=0 / constrained_intra=0 / bframes=7 / b_pyramid=2 / b_adapt=2 / b_bias=0 / direct=3 / weightb=1 / open_gop=0 / weightp=2 / keyint=250 / keyint_min=23 / scenecut=40 / intra_refresh=0 / rc_lookahead=40 / rc=crf / mbtree=0 / crf=17.0 / qcomp=0.65 / qpmin=0 / qpmax=40 / qpstep=4 / vbv_maxrate=50000 / vbv_bufsize=50000 / crf_max=0.0 / nal_hrd=none / ip_ratio=1.25 / pb_ratio=1.25 / aq=1:0.65
Language                                 : English
Default                                  : No
Forced                                   : No

Audio #1
ID                                       : 2
Format                                   : AC-3
Format/Info                              : Audio Coding 3
Mode extension                           : CM (complete main)
Format settings, Endianness              : Big
Codec ID                                 : A_AC3
Duration                                 : 1h 37mn
Bit rate mode                            : Constant
Bit rate                                 : 448 Kbps
Channel(s)                               : 6 channels
Channel positions                        : Front: L C R, Side: L R, LFE
Sampling rate                            : 48.0 KHz
Bit depth                                : 16 bits
Compression mode                         : Lossy
Stream size                              : 311 MiB (5%)
Title                                    : MVO [TakTrebaProduction-Inter] 5.1 448 kbps [Hurtom-Romario_O]
Language                                 : Ukrainian
Default                                  : Yes
Forced                                   : No

Audio #2
ID                                       : 3
Format                                   : AC-3
Format/Info                              : Audio Coding 3
Mode extension                           : CM (complete main)
Format settings, Endianness              : Big
Codec ID                                 : A_AC3
Duration                                 : 1h 37mn
Bit rate mode                            : Constant
Bit rate                                 : 640 Kbps
Channel(s)                               : 6 channels
Channel positions                        : Front: L C R, Side: L R, LFE
Sampling rate                            : 48.0 KHz
Bit depth                                : 16 bits
Compression mode                         : Lossy
Stream size                              : 445 MiB (7%)
Title                                    : Original 5.1 640 kbps
Language                                 : English
Default                                  : No
Forced                                   : No

Text
ID                                       : 4
Format                                   : UTF-8
Codec ID                                 : S_TEXT/UTF8
Codec ID/Info                            : UTF-8 Plain Text
Title                                    : Eng full
Language                                 : English
Default                                  : No
Forced                                   : No

Menu
00:00:00.000                             : en:00:00:00.000
00:03:44.641                             : en:00:03:44.641
00:07:38.875                             : en:00:07:38.875
00:12:30.667                             : en:00:12:30.667
00:18:33.446                             : en:00:18:33.446
00:21:45.221                             : en:00:21:45.221
00:24:47.069                             : en:00:24:47.069
00:27:38.740                             : en:00:27:38.740
00:32:27.612                             : en:00:32:27.612
00:38:13.291                             : en:00:38:13.291
00:43:10.463                             : en:00:43:10.463
00:49:47.276                             : en:00:49:47.276
00:53:47.433                             : en:00:53:47.433
00:58:44.938                             : en:00:58:44.938
01:07:15.073                             : en:01:07:15.073
01:09:24.369                             : en:01:09:24.369
01:12:14.455                             : en:01:12:14.455
01:15:43.456                             : en:01:15:43.456
01:20:33.078                             : en:01:20:33.078
01:24:44.496                             : en:01:24:44.496
01:28:55.539                             : en:01:28:55.539
01:31:12.092                             : en:01:31:12.092




Джерела та подяки: &
ріп відео, оригінальні звук та субтитри - з релізу dsk71 (HDClub); українська доріжка - Romario_O - зведення, drakon87 - запис з ТБ; український постер - thefir (всі - Гуртом).


ЗАЛИШАЙТЕСЬ ЯКОМОГА ДОВШЕ НА РОЗДАЧІ!

СКАЧАВ САМ - ДАЙ СКАЧАТИ ІНШИМ


Срібний реліз (на рейтинг впливає 50% завантаженого)
 Трекер:    Зареєстрований   

Завантажити / скачати фільм українською



відео для новачків



 Зареєстрований:   2013-10-22 10:26
 Розмір:   6.38 GB 
 Оцінка фільму:   4.2/10 (Голосів: 16)
   
Інші релізи
Ваш часовий пояс: GMT + 2 Години

Нова тема   Відповісти