Завантажити та скачати торренти українською


Людина зі сталі / Man of Steel (2013) 720p Ukr/Eng | Sub Ukr/Eng

Нові коментарі

Нова тема   Відповісти
Автор Повідомлення
Anonymous 







2013-10-22 06:44  
Людина зі сталі / Man of Steel (2013) 720p Ukr/Eng | Sub Ukr/Eng



Альтернативні постери







Жанр: фантастика, фентезі, бойовик, пригодницький
Країна: США, Канада, Велика Британія



Кінокомпанія: DC Entertainment, Legendary Pictures, Syncopy, Third Act Productions, Warner Bros. Pictures
Режисер: Зак Снайдер / Zack Snyder
Актори: Генрі Кевілл / Henry Cavill, Емі Адамс / Amy Adams, Майкл Шеннон / Michael Shannon, Рассел Кроу / Russell Crowe, Даян Лейн / Diane Lane, Кевін Костнер / Kevin Costner, Лоуренс Фішберн / Laurence Fishburne, Антьє Трає / Antje Traue, Крістофер Мелоні / Christopher Meloni, Гаррі Дж. Леннікс / Harry J. Lennix та інші

Сюжет:
Кларк Кент - молодий журналіст, який відчуває себе чужинцем через свою неймовірну силу. Відправлений багато років тому на Землю з куди більш розвиненої планети Криптон, він намагається усвідомити “Навіщо?”
Виховуваний у сім'ї названих батьків, Марти та Джонатана Кента, незабаром Кларк розуміє, що мати суперздібності — означає необхідність приймати дуже непрості рішення. Але саме в той момент, коли людству так необхідна стабільність, на світ здійснюється напад. Тепер Кларк стає героєм, відомим як Супермен, щоб допомогти відвести несподівану загрозу і захистити тих, кого він любить.



Рейтинг MPAA: PG-13 - дітям до 13 років перегляд не бажаний
Вікова категорія: 12+


Тривалість: 02:23:03
Якість: 720p [HQ-ViDEO]
Відео:
кодек:
розмір кадру: 1280x534
бітрейт: 7900 kbps

Аудіо # 1:
мова: українська - студія Postmodern
переклад: професійний дубльований
кодек: 5.1
бітрейт: 384 кб/с
Інформація про дубляж
Переклад: Олега Колеснікова
Режисер дубляжу: Анна Пащенко
Керівник проекту: Катерина Фуртас
Ролі дублювали: Дмитро Гаврилов (Генрі Кевіл / Супермен), Кирило Нікітенко, Катерина Сергеєва?, Євген Пашин, Світлана Шекера, Лариса Руснак, Олег Лепенець, Олександр Ігнатуша, Михайло Жонін, Наталя Романько-Кисельова, Михайло Кришталь та інші.

Фільм перекладено і дубльовано на студії Postmodern на замовлення Кіноманія
Аудіо # 2:
мова: англійська
переклад: оригінал
кодек: 5.1
бітрейт: 640 кб/с

Субтитри # 1:
мова: українська
тип: програмні (м'які)
формат: *.srt

Субтитри # 2:
мова: англійська
тип: програмні (м'які)
формат: *.srt

Збережено оригінальні розділи, як на Blu-ray.
MediaInfo
Код:
General
Unique ID                                : 193645724897544465947868448891530815238 (0x91AECF5D5B91E9E39488CCC604D2A706)
Complete name                            : Man of Steel (2013) [Ukr,Eng sub.Ukr,Eng] 720p [Hurtom].mkv
Format                                   : Matroska
Format version                           : Version 4 / Version 2
File size                                : 8.92 GiB
Duration                                 : 2h 23mn
Overall bit rate                         : 8 923 Kbps
Movie name                               : Людина зі сталі / Man of Steel (2013) 720p [Hurtom]
Encoded date                             : UTC 2013-10-22 06:09:30
Writing application                      : mkvmerge v6.5.0 ('Isn't she lovely') built on Oct 20 2013 12:50:05
Writing library                          : libebml v1.3.0 + libmatroska v1.4.1

Video
ID                                       : 1
Format                                   : AVC
Format/Info                              : Advanced Video Codec
Format profile                           : [email protected]
Format settings, CABAC                   : Yes
Format settings, ReFrames                : 12 frames
Codec ID                                 : V_MPEG4/ISO/AVC
Duration                                 : 2h 23mn
Bit rate                                 : 7 900 Kbps
Width                                    : 1 280 pixels
Height                                   : 534 pixels
Display aspect ratio                     : 2.40:1
Frame rate mode                          : Constant
Frame rate                               : 23.976 fps
Color space                              : YUV
Chroma subsampling                       : 4:2:0
Bit depth                                : 8 bits
Scan type                                : Progressive
Bits/(Pixel*Frame)                       : 0.482
Stream size                              : 7.72 GiB (87%)
Title                                    : Людина зі сталі / Man of Steel / Человек из стали (2013) 720p [HQ-ViDEO-Vaippp]
Writing library                          : core 138 r2358 9e941d1
Encoding settings                        : cabac=1 / ref=12 / deblock=1:-3:-3 / analyse=0x3:0x133 / me=tesa / subme=11 / psy=1 / psy_rd=1.20:0.02 / mixed_ref=1 / me_range=24 / chroma_me=1 / trellis=2 / 8x8dct=1 / cqm=0 / deadzone=6,6 / fast_pskip=0 / chroma_qp_offset=-3 / threads=12 / lookahead_threads=2 / sliced_threads=0 / nr=0 / decimate=0 / interlaced=0 / bluray_compat=0 / constrained_intra=0 / bframes=7 / b_pyramid=2 / b_adapt=2 / b_bias=0 / direct=3 / weightb=1 / open_gop=0 / weightp=2 / keyint=240 / keyint_min=22 / scenecut=40 / intra_refresh=0 / rc_lookahead=85 / rc=2pass / mbtree=1 / bitrate=7900 / ratetol=1.0 / qcomp=0.70 / qpmin=0 / qpmax=69 / qpstep=4 / cplxblur=20.0 / qblur=0.5 / vbv_maxrate=62500 / vbv_bufsize=78125 / nal_hrd=none / ip_ratio=1.10 / aq=1:0.60
Language                                 : English
Default                                  : Yes
Forced                                   : No
Color primaries                          : BT.709
Transfer characteristics                 : BT.709
Matrix coefficients                      : BT.709

Audio #1
ID                                       : 2
Format                                   : AC-3
Format/Info                              : Audio Coding 3
Mode extension                           : CM (complete main)
Format settings, Endianness              : Big
Codec ID                                 : A_AC3
Duration                                 : 2h 23mn
Bit rate mode                            : Constant
Bit rate                                 : 384 Kbps
Channel(s)                               : 6 channels
Channel positions                        : Front: L C R, Side: L R, LFE
Sampling rate                            : 48.0 KHz
Bit depth                                : 16 bits
Compression mode                         : Lossy
Stream size                              : 393 MiB (4%)
Title                                    : Dub [Postmodern-DVD R5] 5.1 384 kbps
Language                                 : Ukrainian
Default                                  : Yes
Forced                                   : No

Audio #2
ID                                       : 3
Format                                   : AC-3
Format/Info                              : Audio Coding 3
Mode extension                           : CM (complete main)
Format settings, Endianness              : Big
Codec ID                                 : A_AC3
Duration                                 : 2h 23mn
Bit rate mode                            : Constant
Bit rate                                 : 640 Kbps
Channel(s)                               : 6 channels
Channel positions                        : Front: L C R, Side: L R, LFE
Sampling rate                            : 48.0 KHz
Bit depth                                : 16 bits
Compression mode                         : Lossy
Stream size                              : 655 MiB (7%)
Title                                    : Original 5.1 640 Kbps
Language                                 : English
Default                                  : No
Forced                                   : No

Text #1
ID                                       : 4
Format                                   : UTF-8
Codec ID                                 : S_TEXT/UTF8
Codec ID/Info                            : UTF-8 Plain Text
Title                                    : Ukr full
Language                                 : Ukrainian
Default                                  : Yes
Forced                                   : No

Text #2
ID                                       : 5
Format                                   : UTF-8
Codec ID                                 : S_TEXT/UTF8
Codec ID/Info                            : UTF-8 Plain Text
Title                                    : Eng full
Language                                 : English
Default                                  : No
Forced                                   : No

Menu
00:00:00.000                             : en:Chapter 01
00:11:16.967                             : en:Chapter 02
00:20:01.450                             : en:Chapter 03
00:30:09.474                             : en:Chapter 04
00:39:21.609                             : en:Chapter 05
00:48:57.643                             : en:Chapter 06
00:59:03.414                             : en:Chapter 07
01:08:57.883                             : en:Chapter 08
01:17:35.108                             : en:Chapter 09
01:28:36.185                             : en:Chapter 10
01:40:47.791                             : en:Chapter 11
01:50:55.857                             : en:Chapter 12
02:00:53.579                             : en:Chapter 13
02:10:13.555                             : en:Chapter 14
02:12:49.920                             : en:Chapter 15


Джерела та подяки: & HQ-ViDEO
За надану українську доріжку та субтитри окрема подяка Delight`'у (Гуртом).

Особиста оцінка: 6 - на раз глянути


ЗАЛИШАЙТЕСЬ ЯКОМОГА ДОВШЕ НА РОЗДАЧІ!

СКАЧАВ САМ - ДАЙ СКАЧАТИ ІНШИМ


 Трекер:    Зареєстрований   

Завантажити / скачати фільм українською



відео для новачків



 Зареєстрований:   2013-10-22 08:38
 Розмір:   8.92 GB 
 Оцінка фільму:   7.6/10 (Голосів: 55)
   
Інші релізи
Strider477 
Новенький


З нами з: 29.10.11
Востаннє: 05.12.16
Повідомлень: 20

2013-10-22 19:01  
Нарешті! Дякую за гарну якість)
dj-liam 
Частий відвідувач


З нами з: 30.11.12
Востаннє: 07.12.16
Повідомлень: 38

2013-10-29 16:00  
дякую
waloha 
VIP


З нами з: 29.12.09
Востаннє: 06.12.16
Повідомлень: 323

2013-11-07 21:49  
на великому екрані шикарно, жалко що мені не 12-14 років Happy
Едм 
VIP


З нами з: 18.05.08
Востаннє: 07.12.16
Повідомлень: 1209

2014-01-13 20:02  
igor911 хто Вас просить піарити містечковий іноземний каталог фільмів поряд з IMDb? Що, в Україні нема своїх, чим не подобаються вітчизняні "Мультикіно" чи "Кінотеатр"?
Anonymous 







2014-01-13 23:34  
Едм написано:
...чим не подобаються...

Там оцінок, відгуків, рецензій - кіт наплакав

Віктор 
Відео Гуртом - субтитрування
Відео Гуртом - субтитрування


З нами з: 09.01.10
Востаннє: 08.12.16
Повідомлень: 8663

2014-01-14 00:49  
igor911 написано:
Там оцінок, відгуків, рецензій - кіт наплакав

А звідки їм там бути, якщо всі кому не лінь - рекламують кінопшук?

don pedro 
Попереджень: 1
Попереджень: 1 


З нами з: 29.06.11
Востаннє: 08.12.16
Повідомлень: 8763

2014-01-14 01:20  
Я, напевно, унікум, бо ніколи не заходив на "Кінапоіск"Happy
harley_ua 
Новенький


З нами з: 14.01.10
Востаннє: 03.12.16
Повідомлень: 13

2015-08-05 18:20  
Во намутили, аж жах... Якщо чесно, вже до ригачки задовбали фінальні мегабитви у мегаполісах. Ото було би диво, якби хтось вийшов мочити здодія "ва чіста полюшка"!!!
А в цілому - нічогенький такий собі коміксоїд. Глянути можна. Дякую.

Ваш часовий пояс: GMT + 2 Години

Нова тема   Відповісти