Завантажити та скачати торренти українською


Звичайна справа (2012) AVC

Нові коментарі

Нова тема   Відповісти
Автор Повідомлення
Drool 
VIP


З нами з: 17.04.10
Востаннє: 03.12.16
Повідомлень: 1262

2013-10-21 08:07  
Звичайна справа (2012) AVC

Жанр: драма, комедія
Країна: Україна



Кінокомпанія: Гармата-фільм
Режисер: Валентин Васянович
Актори: Тарас Денисенко, Віталій Лінецький, Леся Самаєва, Семен Фурман

Сюжет:
Головного героя, спадкового лікаря Толіка, виганяють з роботи за бійку з пацієнтами. Герой вважає цю подію гарним знаком, щоб почати нове життя. Нарешті збудеться його мрія стати «вільним» поетом, а якщо пощастить — навіть відомим, адже вірші він пише, і правда, непогані. Дуже приємно, що в цей момент поруч опиниться старий друг Славік, який знає все: в чому сенс життя, як заробити грошей, як стати щасливим. Він втягує героя в ряд абсурдних ситуацій, в яких Толік втрачає майже все, що мав. Ймовірно, саме драматичні ситуації з родиною та пригоди зі Славіком стануть поштовхом до написання дійсно гарних віршів, які потім увійдуть до збірки.


Тривалість: 01:23:29
Якість: AVC
Відео:
кодек:
розмір кадру: 720x462@852x462 (анаморф)
бітрейт: 2207 кб/с

Аудіо:
мова: українська
переклад: оригінал
кодек: 2.0
бітрейт: 192 кб/с
Info
[info]: frame I:725 Avg QP:15.90 size: 44879 PSNR Mean Y:49.63 U:53.79 V:53.55 Avg:50.58 Global:49.74
[info]: frame P:27270 Avg QP:18.22 size: 20928 PSNR Mean Y:46.90 U:51.61 V:51.41 Avg:47.93 Global:46.98
[info]: frame B:97251 Avg QP:20.48 size: 8002 PSNR Mean Y:45.92 U:51.30 V:51.19 Avg:47.04 Global:46.04
[info]: consecutive B-frames: 3.1% 2.6% 6.3% 21.9% 23.9% 10.0% 8.8% 8.3% 13.2% 1.9%
[info]: mb I I16..4: 9.6% 75.6% 14.9%
[info]: mb P I16..4: 1.6% 19.0% 1.5% P16..4: 20.2% 22.4% 14.3% 3.4% 0.5% skip:17.0%
[info]: mb B I16..4: 0.2% 3.0% 0.1% B16..8: 22.4% 15.4% 3.5% direct:10.7% skip:44.6% L0:36.9% L1:38.3% BI:24.8%
[info]: 8x8 transform intra:86.2% inter:60.2%
[info]: direct mvs spatial:97.6% temporal:2.4%
[info]: coded y,uvDC,uvAC intra: 85.8% 77.5% 51.4% inter: 30.2% 22.9% 2.9%
[info]: i16 v,h,dc,p: 47% 24% 6% 23%
[info]: i8 v,h,dc,ddl,ddr,vr,hd,vl,hu: 21% 14% 23% 6% 6% 7% 5% 9% 9%
[info]: i4 v,h,dc,ddl,ddr,vr,hd,vl,hu: 20% 11% 8% 8% 12% 14% 9% 10% 9%
[info]: i8c dc,h,v,p: 37% 27% 26% 10%
[info]: Weighted P-Frames: Y:8.7% UV:4.3%
[info]: ref P L0: 50.8% 12.1% 15.4% 7.7% 5.4% 4.0% 3.0% 1.4% 0.2% 0.0%
[info]: ref B L0: 82.2% 9.3% 4.3% 1.9% 1.2% 0.8% 0.3%
[info]: ref B L1: 94.5% 5.5%
[info]: SSIM Mean Y:0.9876297 (19.076db)
[info]: PSNR Mean Y:46.159 U:51.383 V:51.254 Avg:47.259 Global:46.247 kb/s:2206.01
MediaInfo
General
Unique ID : 201715844856057259788125092041618783058 (0x97C10EFF8774F0D34A9B9015A59A7B52)
Complete name : /mnt/disk/Video/Business.As.Usual.2013.Ukr.Orig.AVC.Uaget.mkv
Format : Matroska
File size : 1.40 GiB
Duration : 1h 23mn
Overall bit rate : 2 400 Kbps
Movie name : Звичайна справа (2012) AVC | -=UAGet=-
Encoded date : UTC 2013-10-22 04:58:56
Writing application : mkvmerge v4.8.0 ('I Got The...') сборка от Aug 22 2011 13:16:28
Writing library : libebml v1.2.0 + libmatroska v1.1.0

Video
ID : 1
Format : AVC
Format/Info : Advanced Video Codec
Format profile : [email protected]
Format settings, CABAC : Yes
Format settings, ReFrames : 8 frames
Codec ID : V_MPEG4/ISO/AVC
Duration : 1h 23mn
Bit rate : 2 207 Kbps
Width : 720 pixels
Height : 462 pixels
Display aspect ratio : 16:9
Original display aspect ratio : 16:9
Frame rate : 25.000 fps
Color space : YUV
Chroma subsampling : 4:2:0
Bit depth : 8 bits
Scan type : Progressive
Bits/(Pixel*Frame) : 0.265
Stream size : 1.26 GiB (90%)
Title : Звичайна справа (2012) AVC | -=UAGet=-
Writing library : core 130 r2273 b3065e6
Encoding settings : cabac=1 / ref=9 / deblock=1:-3:-3 / analyse=0x3:0x133 / me=tesa / subme=11 / psy=1 / psy_rd=1.00:0.20 / mixed_ref=1 / me_range=32 / chroma_me=1 / trellis=2 / 8x8dct=1 / cqm=0 / deadzone=21,11 / fast_pskip=0 / chroma_qp_offset=-3 / threads=6 / lookahead_threads=1 / sliced_threads=0 / nr=0 / decimate=1 / interlaced=0 / bluray_compat=0 / constrained_intra=0 / bframes=9 / b_pyramid=1 / b_adapt=2 / b_bias=0 / direct=3 / weightb=1 / open_gop=0 / weightp=2 / keyint=250 / keyint_min=25 / scenecut=40 / intra_refresh=0 / rc=2pass / mbtree=0 / bitrate=2207 / ratetol=1.0 / qcomp=1.00 / qpmin=0 / qpmax=69 / qpstep=4 / cplxblur=20.0 / qblur=0.5 / ip_ratio=1.40 / pb_ratio=1.30 / aq=2:0.60
Language : Ukrainian
Color primaries : BT.601-6 525, BT.1358 525, BT.1700 NTSC, SMPTE 170M
Transfer characteristics : BT.709-5, BT.1361
Matrix coefficients : BT.601-6 525, BT.1358 525, BT.1700 NTSC, SMPTE 170M

Audio
ID : 2
Format : AC-3
Format/Info : Audio Coding 3
Mode extension : CM (complete main)
Codec ID : A_AC3
Duration : 1h 23mn
Bit rate mode : Constant
Bit rate : 192 Kbps
Channel(s) : 2 channels
Channel positions : Front: L R
Sampling rate : 48.0 KHz
Bit depth : 16 bits
Compression mode : Lossy
Stream size : 115 MiB (8%)
Title : Українська (оригінал) 2.0 192 kbps
Language : Ukrainian
Скріншоти






Джерело:
Особиста оцінка: 0 - не дивився


Золотий реліз (завантажене не впливає на рейтинг)
 Трекер:    Зареєстрований   

Завантажити / скачати український фільм



відео для новачків



 Зареєстрований:   2013-10-22 07:17
 Розмір:   1.4 GB 
 Оцінка фільму:   9/10 (Голосів: 10)
   
bot 
робот


З нами з: 30.09.07
Востаннє: 26.05.05
Повідомлень: 15983

2013-10-21 08:07  
Тему перенесено з Художні фільми до форуму Анонси релізів


Drool

Drool 
VIP


З нами з: 17.04.10
Востаннє: 03.12.16
Повідомлень: 1262

2013-10-21 08:07  
Орієнтовно - завтра. Бо картинка не ахті, і влупив при кодуванні me=tesa...
bot 
робот


З нами з: 30.09.07
Востаннє: 26.05.05
Повідомлень: 15983

2013-10-22 07:17  
Тему перенесено з Анонси релізів до форуму Художні фільми


Drool

AngryBirdsUA 
Свій


З нами з: 24.02.10
Востаннє: 04.12.16
Повідомлень: 2835

2013-10-22 07:49  
Трішки до стандарту не дотягнув.
bohun 
VIP


З нами з: 21.03.09
Востаннє: 03.12.16
Повідомлень: 271

2013-10-22 11:41  
Дуже сумний фільм, якийсь суцільний негатив, чесно кажучи я взагалі не зрозумів про що він... Про людину, яка зневірюється у всьому і стає бомжем? І до чого тут гівно? Напевно занадто філософсько для мене.
Оператор 
Свій


З нами з: 02.06.09
Востаннє: 03.12.16
Повідомлень: 142

2013-10-23 11:19  
bohun
До чого тут гівно? Та тому, що цей фільм - гівно!

Forestelf 
VIP


З нами з: 06.02.09
Востаннє: 21.01.16
Повідомлень: 894

2013-10-23 13:12  
bohun написано:
Дуже сумний фільм, якийсь суцільний негатив, чесно кажучи я взагалі не зрозумів про що він... Про людину, яка зневірюється у всьому і стає бомжем? І до чого тут гівно? Напевно занадто філософсько для мене.

Та що там занадто філософського? Береш "гівно", непотріб, продаєш людям, вони ведуться і купляють - стаєш бізнесменом, потім можливо політиком, потім політиком бізнесменом - поважною людиною, усі тебе люблять... А от коли людина хоче творити, займатися культурою, мистецтвом, донести це "високе до людини" - це нікому не потрібне і врешті-решт не дає тобі простих благ...! Щось таке, я так зрозумів фільм!
Кому не подобаються драми - краще його (фільм) не дивитися.

zaika 
VIP


З нами з: 01.07.12
Востаннє: 03.12.16
Повідомлень: 947

2014-11-28 14:55  
Гарний фільм. Про що? Та напевне про тонку поетичну душу, виховану українською казкою, високою поезією, та совковим патерналізмом, яка нездатна виживати в сучасному реальному світі. А ще комплекси середнього віку, фобії, які з віком невпинно зростають . Сумно, але таке життя. 9/10.
Оповідач 
Поважний учасник


З нами з: 13.03.11
Востаннє: 03.12.16
Повідомлень: 196

2014-11-28 16:14  
Та ну починати український кінематограф з таких фільмів аж ніяк не варто...
Тай Україну будувати треба іншою,а "таке життя" нехай воно у москалів таке буде.Вони його люблять у цьому виді жувати.

zaika 
VIP


З нами з: 01.07.12
Востаннє: 03.12.16
Повідомлень: 947

2014-11-28 18:02  
Оповідач
Думаю пан не зовсім правий. Не з В. Васяновича почався український кінематограф. Просто на сьогодні він самий яскравий його представник. І у фільмі автор показав зовсім не ідеал для наслідування. Просто шкіц із багатоликого сьогодення.

Оповідач 
Поважний учасник


З нами з: 13.03.11
Востаннє: 03.12.16
Повідомлень: 196

2014-12-01 00:58  
Я й не казав що він перший хто відроджує українське кіно.Просто наразі творіння нашого кінематографу можна на пальцях перерахувати.Не має значення 7-ий чи 8-ий цей фільм по рахунку він усеодно входить у список нового українського кіно.І як на мене фільми про занепад та депресію не найкращий вибір на початку.
zaika 
VIP


З нами з: 01.07.12
Востаннє: 03.12.16
Повідомлень: 947

2014-12-01 07:18  
Оповідач
Цитата:
починати український кінематограф

Я зрозумів як написано. І хотів сказати що початки українського кіно треба шукати ще десь на початку 20 ст. Це і Віра Холодна, і Дзига Вертов, Довженко, Савченко, Кавалерідзе іт.д. І здобутки є. Взяти хоча б "Земля", Тіні забутих предків", "Білий птах з чорною ознакою", "Лебедине озеро. Зона" і т. д. Та і тепер не кінець світу. Навіть не можна сказати що в нас спад. Бо не було такого підйому як у Італії чи Франції. Не має ніякого початку. Кіно, як і саме життя не переривалось, а продовжується і розвивається по своїм законам. І сьогодні маєм своє кіно. Може воно не таке гучне як у Іспанії, але воноє. І має свої здобутки. Взяти хоча "Креденс" того ж В. Васяновича.

Ваш часовий пояс: GMT + 2 Години

Нова тема   Відповісти