Завантажити та скачати торренти українською


Заклинач / The Horse Whisperer (1998) 720p Ukr/Eng | Sub Eng

Нові коментарі

Нова тема   Відповісти
Автор Повідомлення
Anonymous 







2013-10-20 19:27  
Заклинач / The Horse Whisperer (1998) 720p Ukr/Eng | Sub Eng



Жанр: драма, мелодрама, сімейний
Країна: США



Кінокомпанія: Touchstone Pictures, Wildwood Enterprises
Режисер: Роберт Редфорд / Robert Redford
Актори: Роберт Редфорд / Robert Redford, Крістін Скотт Томас / Kristin Scott Thomas, Сем Нілл / Sam Neill, Скарлет Йохансон / Scarlett Johansson, Даєнн Віст / Dianne Wiest, Кріс Купер / Chris Cooper, Черрі Джонс / Cherry Jones, Kate Bosworth / Кейт Босворт та інші.

Сюжет:
Найстрашніше випробування для будь-якої матері - нещастя з її дитиною. Енні Маклін переконалася в цьому на власному досвіді. Під час верхової прогулянки серйозно постраждала її дочка. Енні вирішує відвезти нещасну дівчинку і її травмованого коня до заклинача коней, сподіваючись, що ця мандрівка зцілить дівчинку і її улюбленця.



Рейтинг MPAA: PG-13 - дітям до 13 років перегляд не бажаний
Вікова категорія: 12+


Тривалість: 02:49:16
Якість: 720p (EbP)
Відео:
кодек:
розмір кадру: 1280x546
бітрейт: 7852 кб/с

Аудіо # 1:
мова: українська - студія "Стар-Майстер"
переклад: двоголосий закадровий
ролі озвучили: Юлія Перенчук і Дмитро Завадський
кодек: 2.0
бітрейт: 192 кб/с

Аудіо # 2: - для любителів "дутого" чи псевдо-5.1 звуку. Озвучка і запис ті ж, що й у 2.0.
мова: українська
переклад: двоголосий закадровий
кодек: 5.1
бітрейт: 384 кб/с

Аудіо # 3:
мова: англійська
переклад: оригінал
кодек: 5.1
бітрейт: 1536 кб/с

Субтитри:
мова: англійська (SDH)
тип: програмні (м'які)
формат: *.srt

Збережено оригінальні розділи, як на Blu-ray.
MediaInfo та
[info]: frame I:1914 Avg QP:12.96 size:148236
[info]: frame P:49037 Avg QP:15.20 size: 68939
[info]: frame B:192549 Avg QP:16.99 size: 32717
[info]: consecutive B-frames: 1.8% 2.5% 6.1% 12.1% 12.8% 51.3% 6.1% 3.2% 4.3%
[info]: SSIM Mean Y:0.9773571 (16.451db)

Код:
General
Unique ID                                : 178998621593345587846249841729535538843 (0x86A9E16A9D7335C1B732B4CFF960F69B)
Complete name                            : The Horse Whisperer (1998) [Ukr,Eng sub.Eng] 720p [Hurtom].mkv
Format                                   : Matroska
Format version                           : Version 4 / Version 2
File size                                : 11.7 GiB
Duration                                 : 2h 49mn
Overall bit rate                         : 9 937 Kbps
Movie name                               : Заклинач / The Horse Whisperer (1998) 720p [Hurtom]
Encoded date                             : UTC 2013-10-18 10:10:06
Writing application                      : mkvmerge v6.4.1 ('Omega Point') built on Sep 16 2013 22:05:10
Writing library                          : libebml v1.3.0 + libmatroska v1.4.1

Video
ID                                       : 1
Format                                   : AVC
Format/Info                              : Advanced Video Codec
Format profile                           : [email protected]
Format settings, CABAC                   : Yes
Format settings, ReFrames                : 12 frames
Codec ID                                 : V_MPEG4/ISO/AVC
Duration                                 : 2h 49mn
Bit rate                                 : 7 852 Kbps
Width                                    : 1 280 pixels
Height                                   : 546 pixels
Display aspect ratio                     : 2.35:1
Frame rate mode                          : Constant
Frame rate                               : 23.976 fps
Color space                              : YUV
Chroma subsampling                       : 4:2:0
Bit depth                                : 8 bits
Scan type                                : Progressive
Bits/(Pixel*Frame)                       : 0.469
Stream size                              : 9.05 GiB (77%)
Title                                    : Заклинач / The Horse Whisperer / Заклинатель лошадей (1998) 720p [EbP!-HDCLUB]
Writing library                          : core 125 r2200 999b753
Encoding settings                        : cabac=1 / ref=12 / deblock=1:-3:-3 / analyse=0x3:0x133 / me=umh / subme=9 / psy=1 / psy_rd=1.20:0.13 / mixed_ref=1 / me_range=16 / chroma_me=1 / trellis=2 / 8x8dct=1 / cqm=0 / deadzone=21,11 / fast_pskip=0 / chroma_qp_offset=-3 / threads=12 / lookahead_threads=2 / sliced_threads=0 / nr=0 / decimate=0 / interlaced=0 / bluray_compat=0 / constrained_intra=0 / bframes=8 / b_pyramid=2 / b_adapt=2 / b_bias=0 / direct=3 / weightb=1 / open_gop=0 / weightp=2 / keyint=250 / keyint_min=23 / scenecut=40 / intra_refresh=0 / rc=2pass / mbtree=0 / bitrate=7852 / ratetol=1.0 / qcomp=0.40 / qpmin=0 / qpmax=51 / qpstep=4 / cplxblur=20.0 / qblur=0.5 / ip_ratio=1.40 / pb_ratio=1.30 / aq=1:0.95
Language                                 : English
Default                                  : Yes
Forced                                   : No
Matrix coefficients                      : BT.709

Audio #1
ID                                       : 2
Format                                   : AC-3
Format/Info                              : Audio Coding 3
Mode extension                           : CM (complete main)
Format settings, Endianness              : Big
Codec ID                                 : A_AC3
Duration                                 : 2h 49mn
Bit rate mode                            : Constant
Bit rate                                 : 192 Kbps
Channel count                            : 2 channels
Channel positions                        : Front: L R
Sampling rate                            : 48.0 KHz
Bit depth                                : 16 bits
Compression mode                         : Lossy
Stream size                              : 232 MiB (2%)
Title                                    : DVO [Star-Majster-Business] 2.0 192 kbps [Hurtom-NemoInFire]
Language                                 : Ukrainian
Default                                  : Yes
Forced                                   : No

Audio #2
ID                                       : 3
Format                                   : AC-3
Format/Info                              : Audio Coding 3
Mode extension                           : CM (complete main)
Format settings, Endianness              : Big
Codec ID                                 : A_AC3
Duration                                 : 2h 49mn
Bit rate mode                            : Constant
Bit rate                                 : 384 Kbps
Channel count                            : 6 channels
Channel positions                        : Front: L C R, Side: L R, LFE
Sampling rate                            : 48.0 KHz
Bit depth                                : 16 bits
Compression mode                         : Lossy
Stream size                              : 465 MiB (4%)
Title                                    : DVO [Star-Majster-Business] 5.1 384 kbps [Hurtom-NemoInFire]
Language                                 : Ukrainian
Default                                  : No
Forced                                   : No

Audio #3
ID                                       : 4
Format                                   :
Format/Info                              : Digital Theater Systems
Mode                                     : 16
Format settings, Endianness              : Big
Codec ID                                 : A_DTS
Duration                                 : 2h 49mn
Bit rate mode                            : Constant
Bit rate                                 : 1 509 Kbps
Channel count                            : 6 channels
Channel positions                        : Front: L C R, Side: L R, LFE
Sampling rate                            : 48.0 KHz
Bit depth                                : 24 bits
Compression mode                         : Lossy
Stream size                              : 1.78 GiB (15%)
Title                                    : Original 5.1 1536 kbps
Language                                 : English
Default                                  : No
Forced                                   : No

Text
ID                                       : 5
Format                                   : UTF-8
Codec ID                                 : S_TEXT/UTF8
Codec ID/Info                            : UTF-8 Plain Text
Title                                    : Eng full SDH
Language                                 : English
Default                                  : No
Forced                                   : No

Menu
00:00:00.000                             : en:Chapter 1
00:07:33.161                             : en:Chapter 2
00:11:54.588                             : en:Chapter 3
00:21:21.321                             : en:Chapter 4
00:35:42.557                             : en:Chapter 5
00:41:47.129                             : en:Chapter 6
00:45:11.875                             : en:Chapter 7
00:51:43.850                             : en:Chapter 8
00:56:12.118                             : en:Chapter 9
00:58:07.901                             : en:Chapter 10
01:02:58.941                             : en:Chapter 11
01:20:36.832                             : en:Chapter 12
01:26:43.406                             : en:Chapter 13
01:31:36.199                             : en:Chapter 14
01:43:04.344                             : en:Chapter 15
01:52:30.493                             : en:Chapter 16
01:54:12.679                             : en:Chapter 17
02:08:01.006                             : en:Chapter 18
02:17:06.843                             : en:Chapter 19
02:19:40.789                             : en:Chapter 20
02:39:27.015                             : en:Chapter 21
02:42:46.590                             : en:Chapter 22




Джерела та подяки: &
ріп відео, оригінальні звук та субтитри - з релізу dsk71 (HDClub); українська доріжка - NemoInFire - зведення, Technomate - запис з ТБ; український постер - bober-mober (всі - Гуртом).

Особиста оцінка: 8 - мені сподобалося


ЗАЛИШАЙТЕСЬ ЯКОМОГА ДОВШЕ НА РОЗДАЧІ!

СКАЧАВ САМ - ДАЙ СКАЧАТИ ІНШИМ


Срібний реліз (на рейтинг впливає 50% завантаженого)
 Трекер:    Зареєстрований   

Завантажити / скачати фільм українською



відео для новачків



 Зареєстрований:   2013-10-20 19:27
 Розмір:   11.75 GB 
 Оцінка фільму:   5/10 (Голосів: 18)
   
Інші релізи
   Заклинач / The Horse Whisperer (1998) NemoInFire  4 / 0   2.67 GB   2012-07-12 22:33 
alex_cross 
Новенький


З нами з: 16.07.10
Востаннє: 26.11.16
Повідомлень: 13

2013-10-25 21:12  
Моя оціна - 10. Гарний, добротний фільм, що зачіпає. Цікаво було подивитись гру молодої Скарлет. Як на мене, то це найкраща з кінодрам про людей і коней, що я переглядав.

Додано через 6 хвилин 31 секунду:

Ще можу добавити, що варто дивитися в оригіналі, бо у перекладі (на обох доріжках він однаковий) діалоги місцями сильно спрощені.

waldi-hurtom 
VIP


З нами з: 07.10.12
Востаннє: 03.12.16
Повідомлень: 611

2013-11-06 16:46  
Дуже гарний фільм. Фантастично красиві крайовиди, знято майстерно. Робота з кіньми, гра акторів... Важко описати враження, треба просто дивитись. 10 балів. Дякую за чудовий реліз!
P.S. Зараз такий фільм зняти неможливо - захисники тварин перевішаються.

Anonymous 







2013-11-06 16:51  
Дякую за відгуки. Вони додають наснаги робити релізи далі, бо буває заєш собі питання - А чи це комусь ще потрібно?
Ваш часовий пояс: GMT + 2 Години

Нова тема   Відповісти