Завантажити та скачати торренти українською


У пошуках Немо / Finding Nemo (2003) AVC

Нові коментарі

Нова тема   Відповісти
Автор Повідомлення
Drool 
VIP


З нами з: 17.04.10
Востаннє: 09.12.16
Повідомлень: 1270

2013-10-20 01:35  
У пошуках Немо / Finding Nemo (2003) AVC

Жанр: анімація, пригодницький, комедія, сімейний
Країна: Австралія, США



Кінокомпанія: Walt Disney Pictures, Pixar Animation Studios, Disney Enterprises
Режисер: Ендрю Стентон, Лі Анкріч
Ролі озвучують: Альберт Брукс, Еллен ДеДженерес, Александр Ґулд, Віллем Дефо, Бред Геррет, Еллісон Дженні, Остін Пендлтон, Стівен Рут, Віккі Льюїс, Джо Ренфт, Джеффрі Раш, Ендрю Стентон, Елізабет Перкінс, Нічолас Бірд, Боб Пітерсон, Ерік Бана

Сюжет:
Немо - маленька рибка, що заблукала у величезному океані, спіймана водолазами і поміщена у акваріума в кабінеті дантиста. Марлін, батько Немо, і його украй забудькувата подруга - Дорі, відправляються через весь океан, на пошуки блудного сина...


Тривалість: 01:40:54
Якість: AVC
Відео:
кодек:
розмір кадру: 1024x576
бітрейт: 1678 кб/с

Аудіо:
мова: українська
переклад: професійний дубльований
кодек: 5.1
бітрейт: 640 кб/с
Джерело озвучення:
Mediainfo
General
Unique ID : 277496313674588177519769221961222615814 (0xD0C3D8933698F56B1C0B14947C767306)
Complete name : /mnt/router/Torrents/Finding.Nemo.2003.Ukr.Dub.AVC.mkv
Format : Matroska
File size : 1.63 GiB
Duration : 1h 40mn
Overall bit rate : 2 319 Kbps
Movie name : У пошуках Немо / Finding Nemo (2003) AVC
Encoded date : UTC 2010-02-22 21:41:31
Writing application : mkvmerge v6.1.0 ('Old Devil') built on Apr 14 2013 12:26:22
Writing library : libebml v1.3.0 + libmatroska v1.4.0

Video
ID : 1
Format : AVC
Format/Info : Advanced Video Codec
Format profile : [email protected]
Format settings, CABAC : Yes
Format settings, ReFrames : 14 frames
Codec ID : V_MPEG4/ISO/AVC
Duration : 1h 40mn
Bit rate : 1 678 Kbps
Width : 1 024 pixels
Height : 576 pixels
Display aspect ratio : 16:9
Frame rate : 23.976 fps
Color space : YUV
Chroma subsampling : 4:2:0
Bit depth : 8 bits
Scan type : Progressive
Bits/(Pixel*Frame) : 0.119
Stream size : 1.15 GiB (70%)
Title : У пошуках Немо / Finding Nemo (2003) AVC
Writing library : core 124 r2197 69a0443
Encoding settings : cabac=1 / ref=14 / deblock=1:0:0 / analyse=0x3:0x133 / me=umh / subme=10 / psy=1 / psy_rd=1.00:0.00 / mixed_ref=1 / me_range=32 / chroma_me=1 / trellis=2 / 8x8dct=1 / cqm=0 / deadzone=21,11 / fast_pskip=0 / chroma_qp_offset=-2 / threads=9 / sliced_threads=0 / nr=0 / decimate=1 / interlaced=0 / bluray_compat=0 / constrained_intra=0 / bframes=8 / b_pyramid=2 / b_adapt=2 / b_bias=0 / direct=3 / weightb=1 / open_gop=0 / weightp=2 / keyint=240 / keyint_min=23 / scenecut=40 / intra_refresh=0 / rc_lookahead=60 / rc=2pass / mbtree=1 / bitrate=1678 / ratetol=1.0 / qcomp=0.60 / qpmin=0 / qpmax=69 / qpstep=4 / cplxblur=20.0 / qblur=0.5 / ip_ratio=1.40 / aq=1:1.00

Audio
ID : 2
Format : AC-3
Format/Info : Audio Coding 3
Mode extension : CM (complete main)
Codec ID : A_AC3
Duration : 1h 40mn
Bit rate mode : Constant
Bit rate : 640 Kbps
Channel(s) : 6 channels
Channel positions : Front: L C R, Side: L R, LFE
Sampling rate : 48.0 KHz
Bit depth : 16 bits
Compression mode : Lossy
Stream size : 462 MiB (28%)
Title : Ukrainian DUB
Language : Ukrainian
Скріншоти




Джерело:
Особиста оцінка: 10 - без зайвих вагань рекомендую всім!
Подяка за постер: Gelios


 Трекер:    Зареєстрований   

Завантажити / скачати мультфільм українською



відео для новачків



 Зареєстрований:   2013-10-20 01:35
 Розмір:   1.63 GB 
 Оцінка мультфільму:   10/10 (Голосів: 78)
   
Інші релізи
[Plus] 
Свій


З нами з: 28.09.10
Востаннє: 07.12.16
Повідомлень: 60

2014-01-07 15:04  
Дякую!
vadim_granger 
Свій


З нами з: 19.05.13
Востаннє: 07.12.16
Повідомлень: 129

2015-07-08 10:18  
найкращий мульт
antras86 
Новенький


З нами з: 14.08.12
Востаннє: 04.12.16
Повідомлень: 2

2015-12-30 18:09  
ДЯКУЮ !!!
olimpian1 
Новенький


З нами з: 19.10.13
Востаннє: 09.12.16
Повідомлень: 21

2016-03-08 20:56  
Чудово,дякую!!
xz_SLIM_zx 
VIP


З нами з: 15.03.12
Востаннє: 09.12.16
Повідомлень: 346

2016-06-24 20:00  
Один з кращих мультфільмів періоду 2000-16 років. Добрий, веселий, в міру драматичний...Тут немає до чого придертися. Для людей будь-якої вікової категорії)
Автору дякую
11/10

Ваш часовий пояс: GMT + 2 Години

Нова тема   Відповісти