Завантажити та скачати торренти українською


Зоряний шлях / Star Trek (2009) 1080p (60fps) Ukr/Eng | Sub Ukr/Eng

Нові коментарі

Нова тема   Відповісти
Автор Повідомлення
Drool 
VIP


З нами з: 17.04.10
Востаннє: 06.12.16
Повідомлень: 1264

2013-10-19 16:36  
Зоряний шлях / Star Trek (2009) 1080p (60fps) Ukr/Eng | Sub Ukr/Eng

Жанр: екшн, пригодницький, фантастика
Країна: США



Кінокомпанія: Paramount Pictures, Spyglass Entertainment, Bad Robot
Режисер: Джей Джей Абрамс
Актори: Кріс Пайн, Закари Квінто, Леонард Німой, Ерік Бана, Саймон Пегг, Вайнона Райдер

Сюжет:
Доля галактики знаходиться в руках непримиренних ворогів, народжених у двох різних світах. Один з них, Джеймс Тіберіус Кірк, - злочинець, народжений природним чином на фермі в Айова, який постійно шукає пригод на свою голову. Інший, Спок, який виріс на планеті Вулкан, - ізгой через своє напівлюдське походження, що робить його чутливим до емоцій. Але в центрі подій Кірк і Спок зіткнуться з невідворотною перешкодою: вони будуть змушені об’єднати свої зусилля, щоб їхня команда дісталася туди, де ніхто ще не бував.


Тривалість: 02:06:50
Якість: 1080p
Відео:
кодек:
розмір кадру: 1920x800
бітрейт: 20.0 Мб/с
частота кадрів: 60 кадрів/с

Аудіо # 1:
мова: українська
переклад: професійний дубльований
кодек: 5.1
бітрейт: 448 кб/с
Джерело озвучення:


Аудіо # 2:
мова: англійська
переклад: оригінал
кодек: 5.1
бітрейт: 1510 кб/с

Аудіо # 3:
мова: англійська (коментарі)
переклад: оригінал
кодек: OGG Vorbis 2.0
бітрейт: 80 кб/с

Субтитри:
мова: українська
тип: програмні (м'які)
формат: *.srt

Субтитри:
мова: англійська
тип: програмні (м'які)
формат: *.srt
MediaInfo
General
Unique ID : 336358279242012341025439349542835029437 (0xFD0C3F8A435219F8E28F663058CD85BD)
Complete name : /mnt/data/torrents/Star.Trek.2009.Ukr.Dub..1080p.60fps.mkv
Format : Matroska
Format version : Version 4 / Version 2
File size : 19.5 GiB
Duration : 2h 6mn
Overall bit rate mode : Variable
Overall bit rate : 22.0 Mbps
Movie name : Зоряний шлях / Star Trek (2009) 1080p 60fps Ukr/Eng | Sub Ukr/Eng | video by Dispasher
Encoded date : UTC 2010-02-22 21:41:31
Writing application : mkvmerge v6.1.0 ('Old Devil') built on Apr 14 2013 12:26:22
Writing library : libebml v1.3.0 + libmatroska v1.4.0
Attachment : Yes / Yes

Video
ID : 1
Format : AVC
Format/Info : Advanced Video Codec
Format profile : [email protected]
Format settings, CABAC : Yes
Format settings, ReFrames : 6 frames
Codec ID : V_MPEG4/ISO/AVC
Duration : 2h 6mn
Bit rate : 20.0 Mbps
Width : 1 920 pixels
Height : 800 pixels
Display aspect ratio : 2.40:1
Frame rate mode : Constant
Frame rate : 60.000 fps
Color space : YUV
Chroma subsampling : 4:2:0
Bit depth : 8 bits
Scan type : Progressive
Bits/(Pixel*Frame) : 0.217
Stream size : 17.3 GiB (89%)
Title : Зоряний шлях / Star Trek (2009) 1080p 60fps | video by Dispasher
Writing library : core 120
Encoding settings : cabac=1 / ref=6 / deblock=1:0:0 / analyse=0x3:0x113 / me=esa / subme=7 / psy=1 / psy_rd=1.00:0.00 / mixed_ref=1 / me_range=32 / chroma_me=1 / trellis=1 / 8x8dct=1 / cqm=0 / deadzone=21,11 / fast_pskip=1 / chroma_qp_offset=-2 / threads=3 / sliced_threads=0 / nr=0 / decimate=1 / interlaced=0 / bluray_compat=0 / constrained_intra=0 / bframes=3 / b_pyramid=2 / b_adapt=2 / b_bias=0 / direct=1 / weightb=1 / open_gop=0 / weightp=2 / keyint=600 / keyint_min=60 / scenecut=40 / intra_refresh=0 / rc_lookahead=50 / rc=2pass / mbtree=1 / bitrate=20000 / ratetol=1.0 / qcomp=0.60 / qpmin=3 / qpmax=69 / qpstep=4 / cplxblur=20.0 / qblur=0.5 / ip_ratio=1.40 / aq=1:1.00
Default : Yes
Forced : No

Audio #1
ID : 2
Format : AC-3
Format/Info : Audio Coding 3
Mode extension : CM (complete main)
Codec ID : A_AC3
Duration : 2h 6mn
Bit rate mode : Constant
Bit rate : 448 Kbps
Channel(s) : 6 channels
Channel positions : Front: L C R, Side: L R, LFE
Sampling rate : 48.0 KHz
Bit depth : 16 bits
Compression mode : Lossy
Stream size : 406 MiB (2%)
Title : 5.1, 448 kbps {professional dubbing}
Language : Ukrainian
Default : Yes
Forced : No

Audio #2
ID : 3
Format :
Format/Info : Digital Theater Systems
Codec ID : A_DTS
Duration : 2h 6mn
Bit rate mode : Constant
Bit rate : 1 510 Kbps
Channel(s) : 6 channels
Channel positions : Front: L C R, Side: L R, LFE
Sampling rate : 48.0 KHz
Bit depth : 24 bits
Compression mode : Lossy
Stream size : 1.34 GiB (7%)
Title : 5.1 1536 kbps
Language : English
Default : No
Forced : No

Audio #3
ID : 4
Format : Vorbis
Format settings, Floor : 1
Codec ID : A_VORBIS
Duration : 2h 6mn
Bit rate mode : Variable
Bit rate : 80.0 Kbps
Channel(s) : 2 channels
Sampling rate : 48.0 KHz
Compression mode : Lossy
Stream size : 72.6 MiB (0%)
Title : Commentary Vorbis 2.0 @ 80 Kbps
Writing library : libVorbis 1.2 (UTC 2007-06-22)
Language : English
Default : No
Forced : No

Text #1
ID : 5
Format : UTF-8
Codec ID : S_TEXT/UTF8
Codec ID/Info : UTF-8 Plain Text
Title : full
Language : Ukrainian
Default : Yes
Forced : No

Text #2
ID : 6
Format : UTF-8
Codec ID : S_TEXT/UTF8
Codec ID/Info : UTF-8 Plain Text
Title : full
Language : English
Default : No
Forced : No
Скріншоти



Походження: відеоряд взято з ріпу Dispasher
Особиста оцінка: 10 - без зайвих вагань рекомендую всім!


 Трекер:    Зареєстрований   

Завантажити / скачати фільм українською



відео для новачків



 Зареєстрований:   2013-10-19 18:33
 Розмір:   19.51 GB 
 Оцінка фільму:   9.7/10 (Голосів: 15)
   
Інші релізи
   Зоряний шлях / Star Trek (2009) 720p 2xUkr/Eng | Sub Ukr/Eng aalleexx85  19 / 1   4.14 GB   2013-07-24 08:59 
   Зоряний шлях / Star Trek (2009) 2xUkr BILko  13 / 0   2.17 GB   2012-06-02 16:42 
   Зоряний шлях / Star Trek (2009) black0wolf  0 / 0   1.99 GB   2009-11-04 18:03 
   Зоряний шлях / Star Trek (2009) 1080p Ukr/Eng | Sub Ukr/Eng SainTManiac  9 / 0   13.59 GB   2009-10-30 17:41 
   Зоряний шлях / Star Trek (2009) Snooppy  6 / 0   2.18 GB   2009-10-29 19:27 
   Зоряний шлях / Star Trek (2009) fazza  5 / 0   1.95 GB   2009-10-29 12:44 
bot 
робот


З нами з: 30.09.07
Востаннє: 26.05.05
Повідомлень: 16005

2013-10-19 17:31  
Тему перенесено з Фільми в HD до форуму Анонси релізів


Drool

Drool 
VIP


З нами з: 17.04.10
Востаннє: 06.12.16
Повідомлень: 1264

2013-10-19 17:55  
Хтось може за семплом сказати - є розсинхрон чи ні?
bot 
робот


З нами з: 30.09.07
Востаннє: 26.05.05
Повідомлень: 16005

2013-10-19 18:33  
Тему перенесено з Анонси релізів до форуму Фільми в HD


Drool

BOOGud 
VIP


З нами з: 06.03.12
Востаннє: 11.11.16
Повідомлень: 907

2013-10-19 20:20  
Drool написано:
Хтось може за семплом сказати - є розсинхрон чи ні?

емм, походу таки є, і доволі пальоний

Drool 
VIP


З нами з: 17.04.10
Востаннє: 06.12.16
Повідомлень: 1264

2013-10-19 20:28  
BOOGud написано:
емм, походу таки є, і доволі пальоний

А машина тягне? Бо тут відео триповерхове...

pentagon 
Частий відвідувач


З нами з: 08.12.09
Востаннє: 23.11.16
Повідомлень: 36

2013-11-03 04:13  
Цитата:
ізгой


Хто-хто?

Drool 
VIP


З нами з: 17.04.10
Востаннє: 06.12.16
Повідомлень: 1264

2013-11-03 18:27  
pentagon написано:
Хто-хто?

А який варіант більше підходить? Перший чи другий?

pentagon 
Частий відвідувач


З нами з: 08.12.09
Востаннє: 23.11.16
Повідомлень: 36

2013-11-04 14:43  
Це кіно - про Київську Русь?
Drool 
VIP


З нами з: 17.04.10
Востаннє: 06.12.16
Повідомлень: 1264

2013-11-04 15:30  
pentagon написано:
Це кіно - про Київську Русь?

Ви будете здивовані, скільки слів, вживаних донині, виникло ще хто зна за яких часів. Ще є щось розумне сказати, чи пальці без клави сверблять? Happy

Х-Хед 
VIP


З нами з: 06.05.12
Востаннє: 12.11.16
Повідомлень: 297

2014-01-02 22:01  
Чому я завантажував 4 дні - у мене завантажилось 2,7 % і коли я видалив та знов почав завантажувати-знов через 4 дні лише 2,7% ??? У файлі вірус? Чи така катастрофічна ситуація через відсутність роздачі?
cham_vg 
Новенький


З нами з: 02.11.13
Востаннє: 08.02.14
Повідомлень: 1

2014-01-11 18:58  
Роздайте, будьласка.
-VJ- 
VIP


З нами з: 01.11.09
Востаннє: 06.12.16
Повідомлень: 577

2014-08-29 09:09  
Схоже тему можна в архів переносити - два місяці нема жодного джерела.
Едм 
VIP


З нами з: 18.05.08
Востаннє: 04.12.16
Повідомлень: 1209

2016-04-25 06:31  
В Note 4 1080p 60fps виглядає досить захоплюче, треба буде зацінити що назнімала професійна комера :)
Едм 
VIP


З нами з: 18.05.08
Востаннє: 04.12.16
Повідомлень: 1209

2016-04-25 19:16  
Це мій перший фільм 60fps (залізо для нього точно достатн'є), і я розчарований. Не технологією, а фільмом, роботою оператора. Вам випадково випадало розмовляюти з людиною що на другому кінці по відео-телефону йде на вулиці? Підтошнює від постійного руху. Мені загалом в фільмах подобається фіксована позиція камери. В цьому плані слав'яться відомі американські серіали "Пустититися берега", "Доктор Хаус", тощо.

Подивіться на котиків. "вау" ефект тут в їх плавній метушні, справляє враження "дуже" живих, напротивагу переміщення позиції камери, коли їде мов річка весь кадр (дивитися на повний екран в 1080, ваш кеп)



З іншої сторони, на 15 хвилині драматична сторона фільму рулить, все грамотно.

Едм 
VIP


З нами з: 18.05.08
Востаннє: 04.12.16
Повідомлень: 1209

2016-04-26 01:41  
Пристойна стрічка. Сценарій прописано досконально, картинка масштабу космосу зриває мозок і все приправленно гладенькою картинкою швидікісних кадрів.
BraveNestor 
Новенький


З нами з: 09.01.12
Востаннє: 30.11.16
Повідомлень: 2

2016-07-26 17:18  
станьте на роздачу будь ласка!
Wensun 
Частий відвідувач


З нами з: 20.01.09
Востаннє: 06.12.16
Повідомлень: 47

2016-08-17 21:58  
який прікол дивитись фільм який виглядає як новини ? я про 60фпс
Drool 
VIP


З нами з: 17.04.10
Востаннє: 06.12.16
Повідомлень: 1264

2016-08-18 15:23  
Wensun написано:
який прікол дивитись фільм який виглядає як новини ? я про 60фпс
а) а хто змушує?
б) 60fps виглядають природньо, тому що око фіксує до 24-25 кадрів на секунду, а мозок - до 48 кадрів на секунду. Просто незвично, так само, як коли я з-за монітора з ЕЛТ пересів на плаский - я дивився в монітор і бачив зображення у вигляді "тазіка" - вигнуте по краям та утоплене в центрі.

Ваш часовий пояс: GMT + 2 Години

Нова тема   Відповісти