Завантажити та скачати торренти українською


Своя людина / The Insider (1999) 720p Ukr/Eng | sub Eng

Нові коментарі

Нова тема   Відповісти
Автор Повідомлення
bodia87 
Відео Гуртом - фільмокрай
Відео Гуртом - фільмокрай


З нами з: 24.01.09
Востаннє: 05.12.16
Повідомлень: 468

2013-10-18 13:35  
Своя людина / The Insider (1999) 720p Ukr/Eng | sub Eng

Своя людина / The Insider (1999) 720p Ukr/Eng | sub Eng


Жанр: біографічний, драма, трилер
Країна: США



Кінокомпанія: Blue Lion Entertainment, Forward Pass, Kaitz Productions
Режисер: Майкл Манн
Актори: Аль Пачіно, Рассел Кроу, Крістофер Пламмер, Даян Венора, Філіп Бейкер Гол, Ліндсей Круз, Дебі Мазар, Стівен Тоболовскі, Колм Фіорі, Брюс Маꥳлл.

Сюжет:
Джеффрі Вайґенда звільняють з поста віце-президента найбільшої тютюнової компанії за те, що він протестує проти використання в тютюновій продукції компонента, що викликає у курців наркотичну залежність. Ловелл Берґмен, продюсер популярного телешоу, дізнається про це і переконує Вайґенда виступити з викривальним інтерв'ю по телебаченню... Це дуже не подобається стовпам тютюнової індустрії, які запевняють у нешкідливості виробленої продукції. Олігархи приймають найсуворіші заходи, щоб інформація не стала надбанням гласності. Від Вайґенда йде дружина, Ловелла Берґмена відправляють у відпустку. Там, де задіяні великі гроші, даремно боротися за справедливість, але Берґмен і Вайґенд не припиняють боротьбу.


Тривалість: 02:37:46
Якість:
Відео:
кодек:
розмір кадру: 1280 х 528
бітрейт: 3 019 кб/с
CRF: 19

Аудіо # 1:
мова: українська
переклад: багатоголосий закадровий
кодек: 5.1
бітрейт: 448 кб/с

Аудіо # 2:
мова: англійська
переклад: оригінал
кодек: 5.1
бітрейт: 448 кб/с

Субтитри:
мова: англійська
тип: програмні (м'які)
формат: *.srt
MediaInfo
General
Unique ID : 182382101384821186805411033389079242039 (0x893583D9833CC949993D6A8A3D98A537)
Complete name : F:\release\The Insider (1999) 720p [ukr.eng] Hurtom.mkv
Format : Matroska
Format version : Version 2
File size : 4.33 GiB
Duration : 2h 37mn
Overall bit rate : 3 932 Kbps
Encoded date : UTC 2013-10-18 12:10:11
Writing application : mkvmerge v4.4.0 ('Die Wiederkehr') зібрано Oct 31 2010 21:52:48
Writing library : libebml v1.0.0 + libmatroska v1.0.0

Video
ID : 1
Format : AVC
Format/Info : Advanced Video Codec
Format profile : [email protected]
Format settings, CABAC : Yes
Format settings, ReFrames : 8 frames
Codec ID : V_MPEG4/ISO/AVC
Duration : 2h 37mn
Bit rate : 3 021 Kbps
Width : 1 280 pixels
Height : 528 pixels
Display aspect ratio : 2.40:1
Frame rate mode : Constant
Frame rate : 23.976 fps
Color space : YUV
Chroma subsampling : 4:2:0
Bit depth : 8 bits
Scan type : Progressive
Bits/(Pixel*Frame) : 0.186
Stream size : 3.33 GiB (77%)
Writing library : core 133 r2334 a3ac64b
Encoding settings : cabac=1 / ref=8 / deblock=1:1:-3 / analyse=0x3:0x113 / me=umh / subme=10 / psy=1 / psy_rd=1.00:0.15 / mixed_ref=1 / me_range=32 / chroma_me=1 / trellis=2 / 8x8dct=1 / cqm=0 / deadzone=21,11 / fast_pskip=0 / chroma_qp_offset=-3 / threads=6 / lookahead_threads=1 / sliced_threads=0 / nr=0 / decimate=1 / interlaced=0 / bluray_compat=0 / constrained_intra=0 / bframes=3 / b_pyramid=2 / b_adapt=2 / b_bias=0 / direct=1 / weightb=1 / open_gop=0 / weightp=2 / keyint=250 / keyint_min=23 / scenecut=40 / intra_refresh=0 / rc_lookahead=40 / rc=crf / mbtree=1 / crf=19.0 / qcomp=0.60 / qpmin=0 / qpmax=69 / qpstep=4 / vbv_maxrate=24000 / vbv_bufsize=24000 / crf_max=0.0 / nal_hrd=none / ip_ratio=1.40 / aq=1:1.10
Default : Yes
Forced : No

Audio #1
ID : 2
Format : AC-3
Format/Info : Audio Coding 3
Mode extension : CM (complete main)
Format settings, Endianness : Big
Codec ID : A_AC3
Duration : 2h 37mn
Bit rate mode : Constant
Bit rate : 384 Kbps
Channel(s) : 6 channels
Channel positions : Front: L C R, Side: L R, LFE
Sampling rate : 48.0 KHz
Bit depth : 16 bits
Compression mode : Lossy
Stream size : 433 MiB (10%)
Title : Ukr for Hurtom.com [1+1]
Language : Ukrainian
Default : Yes
Forced : No

Audio #2
ID : 3
Format : AC-3
Format/Info : Audio Coding 3
Mode extension : CM (complete main)
Format settings, Endianness : Big
Codec ID : A_AC3
Duration : 2h 37mn
Bit rate mode : Constant
Bit rate : 448 Kbps
Channel(s) : 6 channels
Channel positions : Front: L C R, Side: L R, LFE
Sampling rate : 48.0 KHz
Bit depth : 16 bits
Compression mode : Lossy
Stream size : 506 MiB (11%)
Language : English
Default : No
Forced : No

Text
ID : 4
Format : UTF-8
Codec ID : S_TEXT/UTF8
Codec ID/Info : UTF-8 Plain Text
Language : English
Default : No
Forced : No
Скріншоти










Джерело:


Срібний реліз (на рейтинг впливає 50% завантаженого)
 Трекер:    Зареєстрований   

Завантажити / скачати фільм українською



відео для новачків



 Зареєстрований:   2013-10-18 16:28
 Розмір:   4.33 GB 
 Оцінка фільму:   8.8/10 (Голосів: 13)
   
Інші релізи
   Своя людина / The Insider (1999) Gelios  11 / 0   2.18 GB   2013-10-17 16:58 
bot 
робот


З нами з: 30.09.07
Востаннє: 26.05.05
Повідомлень: 15990

2013-10-18 13:39  
Тему перенесено з Фільми в HD до форуму Неоформлене відео

Причина перенесення: Вимкніть функцію Header Stripping, і перезалийте торрент
patriot2305

bot 
робот


З нами з: 30.09.07
Востаннє: 26.05.05
Повідомлень: 15990

2013-10-18 16:27  
Тему перенесено з Неоформлене відео до форуму Фільми в HD


patriot2305

Надія* 
Свій


З нами з: 19.12.12
Востаннє: 03.12.16
Повідомлень: 86

2013-11-03 02:32  
Події, описані у фільмі, справді мали місце в 1995 році. Це справді було доведено, як і факт цькування і залякування Джефрі Вайгенда. Попереджувальні написи на пачках сигарет - це результат чийогось пропущеного через м’ясорубку життя.
Тютюнові компанії після цього скандалу виплатили 246 мільярдів (мільярдів) доларів за доведеними судовими позовами щодо фактів руйнівного впливу сигарет на здоровʼя. Мільярдів. У нас би цього чувака просто вбили в під’їзді.

Ваш часовий пояс: GMT + 2 Години

Нова тема   Відповісти